2024 大陆 剧情 WEB-1080P 与凤行[第27-28集][国语配音/中文字幕].The.Legend.of.ShenLi.S01.2024.1080p.WEB-DL.H265.AAC-BlackTV 1.13GB

RAY20920M 2024-04-03 01:48 572


完整标题:与凤行[第27-28集][国语配音/中文字幕].The.Legend.of.ShenLi.S01.2024.1080p.WEB-DL.H265.AAC-BlackTV 1.13GB




◎标  题 与凤行
◎译  名 本王在此 / The Legend of Shen Li
◎年  代 2024
◎产  地 中国大陆
◎类  别 剧情 / 爱情 / 奇幻 / 古装
◎语  言 汉语普通话
◎IMDb链接 https://www.imdb.com/title/tt27531070/
◎豆瓣链接 https://movie.douban.com/subject/35564470/
◎导  演 邓科 Ke Deng
◎编  剧 九鹭非香
◎演  员 赵丽颖 Liying Zhao
      林更新 Gengxin Lin
      辛云来 Yunlai Xin
      何与 Yu He
      李嘉琦 Jackie Li
      曾黎 Li Zeng
      宣璐 Lu Xuan
      刘冠麟 Guanlin Liu
      邱心志 Hsin-chih Chiu
      黄澄澄 Chengcheng Huang
      徐海乔 Haiqiao Xu
      董洁 Jie Dong
      宋宁峰 Ningfeng Song
      周峻纬 Junwei Zhou
      王伊瑶 Yiyao Wang
      魏子昕 Zixin Wei
      李子峰 Zifeng Li
      黄羿 Yi Huang
      胡丹丹 Dandan Hu
      周小川 Xiaochuan Zhou
      陈震 Marco Chen
      肖添仁 Tianren Xiao
      於薇妮 Winnie
      李解 Jie Li
      赵柯 Karina Zhao

◎简  介
    灵界碧苍王沈璃(赵丽颖 饰)为掌握自己的命运,在逃婚过程中意外遇到在人间游历的神行止(林更新 饰),两人在一起除恶扬善、探索真相的过程中互生情愫。上古最后一位神行止,担负着守护天外天的重任,以保卫天下和平,万物归序。两个同样肩负重任的人,在爱情与责任之间进行着艰难的抉择。沈璃为守护子民,奋勇地与恶势力做斗争,不惜战亡东海以全大义。行止在沈璃身上领悟了责任的意义,最终勇敢地肩负起自己的使命,以牺牲小我来守护世间和平。两人都在这一过程中重新领悟了爱情、责任与生命的真谛。   该剧改编自九鹭非香小说《本王在此》。

##### MediaInfo ######
General
Unique ID : 68377932810785782423493775340615647753 (0x33711C5F968F8D8AE8989381C43A4209)
Complete name : The.Legend.of.ShenLi.S01E27.2024.1080p.WEB-DL.H265.AAC-BlackTV.mkv
Duration : 39 min 27 s
Overall bit rate : 2 030 kb/s

Video
ID : 1
Format : HEVC
Format/Info : High Efficiency Video Coding
Format profile : Main@L4@Main
Codec ID : V_MPEGH/ISO/HEVC
Duration : 39 min 27 s
Bit rate : 1 838 kb/s
Width : 1 920 pixels
Height : 1 080 pixels
Display aspect ratio : 16:9
Frame rate mode : Constant
Frame rate : 25.000 FPS
Color space : YUV
Chroma subsampling : 4:2:0
Bit depth : 8 bits
Bits/(Pixel*Frame) : 0.035
Stream size : 519 MiB (91%)
Writing library : 200910.mgtv.com
Language : Chinese
Default : Yes
Forced : No
Color range : Limited
Color primaries : BT.709
Transfer characteristics : BT.709
Matrix coefficients : BT.709

Audio
ID : 2
Format : AAC LC
Format/Info : Advanced Audio Codec Low Complexity
Codec ID : A_AAC-2
Duration : 39 min 27 s
Bit rate : 192 kb/s
Channel(s) : 2 channels
Channel layout : L R
Sampling rate : 44.1 kHz
Frame rate : 43.066 FPS (1024 SPF)
Compression mode : Lossy
Stream size : 53.5 MiB (9%)
Title : Mandarin [AAC2.0]
Language : Chinese
Default : No
Forced : No

Menu
00:04:05.000 : zh:行止假扮渔夫遭沈璃怀疑
00:18:17.000 : zh:拂容君下界寻找行止
00:28:15.000 : zh:幽兰偷看拂容君记忆


部分资源为软字幕,移动端推荐播放器:MxPlayer,nPlayer,infuse ,其他播放器请自行尝试。

部分资源为软字幕,电脑端推荐播放器:PotPlayer,完美解码,KMPLAYER,其他播放器请自行尝试。

下载端推荐纯BT下载软件:qBittorrent,Bitcomet,uTorrent ,其他下载软件请自行尝试。不支持吸血迅雷。

上传的附件:
最新回复 (0)