2013 大陆 剧情 WEB-1080P 中国通史[全100集][国语配音/中文字幕].General.History.of.China.S01.2013.1080p.WEB-DL.H264.AAC-LelveTV 61.50GB

RAY20920M 2024-04-03 01:51 724


完整标题:中国通史[全100集][国语配音/中文字幕].General.History.of.China.S01.2013.1080p.WEB-DL.H264.AAC-LelveTV 61.50GB




◎标  题 中国通史
◎译  名 General History of China
◎年  代 2013
◎产  地 中国大陆
◎类  别 纪录片
◎语  言 汉语普通话
◎IMDb链接 https://www.imdb.com/title//
◎豆瓣评分 9.2/10 (16535人评价)
◎豆瓣链接 https://movie.douban.com/subject/20515991/
◎导  演 赵良 Liang Zhao
      蒋俊杰
      滕忠彬 Zhongbin Teng
      沈世平 Shiping Shen
      田波 Bo Tian
      魏圣泽
      勒内·西格斯 René Seegers
◎编  剧 卜宪群 Xianqun Bu
◎演  员 徐涛 Tao Xu
      赵声良 Shengliang Zhao

◎简  介
    百集大型纪录片《中国通史》由央视电影频道节目中心制作出品、中国社 会科学院监制、中国社会科学院历史研究所组织 撰稿并邀请国内多家重点大学、专业机构的研究 人员共同参与创作。   为了让广大观众先行了解其面貌,并听取各 方面意见,不断提高拍摄质量,电影频道从已经 拍摄完成的作品中,选出有关魏晋南北朝到隋唐 时期的7集先行播出,1月21日至27日晚8:50, 观众将分别看到《诸葛亮治蜀》、《魏晋风 度》、《北魏孝文帝改革》、《梁武帝治国》、 《魏晋佛教》、《再造统一》和《炀帝功过》。

##### MediaInfo ######
General
Unique ID : 251174341680910056524904910946709603618 (0xBCF66B28BF42A6C4CBE5B3B74DAD0522)
Complete name : General.History.of.China.S01E01.2013.1080p.WEB-DL.H264.AAC-LelveTV.mkv
Duration : 45 min 0 s
Overall bit rate : 1 878 kb/s

Video
ID : 1
Format : AVC
Format/Info : Advanced Video Codec
Format profile : High@L4
Format settings : CABAC / 3 Ref Frames
Format settings, CABAC : Yes
Format settings, Reference frames : 3 frames
Codec ID : V_MPEG4/ISO/AVC
Duration : 45 min 0 s
Bit rate : 1 686 kb/s
Width : 1 920 pixels
Height : 1 080 pixels
Display aspect ratio : 16:9
Frame rate mode : Constant
Frame rate : 25.000 FPS
Color space : YUV
Chroma subsampling : 4:2:0
Bit depth : 8 bits
Scan type : Progressive
Bits/(Pixel*Frame) : 0.033
Stream size : 543 MiB (90%)
Language : Chinese
Default : Yes
Forced : No
Color range : Limited
Color primaries : BT.709
Transfer characteristics : BT.709
Matrix coefficients : BT.709

Audio
ID : 2
Format : AAC LC
Format/Info : Advanced Audio Codec Low Complexity
Codec ID : A_AAC-2
Duration : 45 min 0 s
Bit rate : 192 kb/s
Channel(s) : 2 channels
Channel layout : L R
Sampling rate : 44.1 kHz
Frame rate : 43.066 FPS (1024 SPF)
Compression mode : Lossy
Stream size : 61.1 MiB (10%)
Default : No
Forced : No


部分资源为软字幕,移动端推荐播放器:MxPlayer,nPlayer,infuse ,其他播放器请自行尝试。

部分资源为软字幕,电脑端推荐播放器:PotPlayer,完美解码,KMPLAYER,其他播放器请自行尝试。

下载端推荐纯BT下载软件:qBittorrent,Bitcomet,uTorrent ,其他下载软件请自行尝试。不支持吸血迅雷。

上传的附件:
最新回复 (0)