2024 大陆 剧情 WEB-4K 乘风踏浪[第09-10集][国语配音/中文字幕].The.Swimsuit.Saga.S01.2024.2160p.WEB-DL.H265.EDR.DDP5.1-LelveTV 11.07GB

MAY20919R 2024-04-03 02:02 363


完整标题:乘风踏浪[第09-10集][国语配音/中文字幕].The.Swimsuit.Saga.S01.2024.2160p.WEB-DL.H265.EDR.DDP5.1-LelveTV 11.07GB




◎标  题 乘风踏浪
◎译  名 The Swimsuit Saga
◎年  代 2024
◎产  地 中国大陆
◎类  别 剧情
◎语  言 汉语普通话
◎IMDb链接 https://www.imdb.com/title/tt31938744/
◎豆瓣链接 https://movie.douban.com/subject/35390878/
◎导  演 张思麟 Silin Zhang
      刘岩 Liu Yan
◎编  剧 徐正超 Zhengchao Xu
◎演  员 乔杉 Shan Qiao
      杨子姗 Zishan Yang
      刘佳 Jia Liu
      唐鉴军 Jianjun Tang
      于洋 Yang Yu
      张瑞涵 Ruihan Zhang
      韩云云 Yunyun Han
      冯满 Man Feng
      刘秋实 Qiushi Liu
      贾金金 Jinjin Jia
      魏来 Lai Wei

◎简  介
    1978年,20岁的辽宁兴城人彭锦西被情敌秦升举报“投机倒把”入狱,失去了上大学的资格。彭锦西出狱后自产自销做起泳裤生意,女友罗虹不离不弃,他们克服重重困难喜结连理,彭锦西成为当地第一个“万元户”。1980年代初,政策放开,远亲贾为民等人效仿彭锦西建作坊做泳装,开始与他展开价格战,彭锦西夫妇见招拆招,既巩固了本地市场,又团结了同行,彭锦西领路让“兴城泳装”走向全国。上世纪90年代,彭锦西遭遇秦升复仇和市场整改的双面夹击,跌入低谷,他依旧乐观,凭借过人的智慧,几经沉浮找到突破口,建立正规工厂和自主品牌,成功突围。之后,彭锦西夫妇带领“兴城泳装”乘风踏浪,成为全球最大的泳装生产基地,世界上每4件泳装就有1件是兴城人生产出来的。

##### MediaInfo ######
General
Unique ID : 176711691598621878161318568042796298390 (0x84F16F0FF645C26C10C2B9567F4E3096)
Complete name : The.Swimsuit.Saga.S01E09.2024.2160p.WEB-DL.H265.EDR.DDP5.1-LelveTV.mkv
Duration : 45 min 11 s
Overall bit rate : 17.5 Mb/s

Video
ID : 1
Format : HEVC
Format/Info : High Efficiency Video Coding
Format profile : Main@L5@Main
Codec ID : V_MPEGH/ISO/HEVC
Duration : 45 min 10 s
Bit rate : 17.0 Mb/s
Width : 3 840 pixels
Height : 2 160 pixels
Display aspect ratio : 16:9
Frame rate mode : Constant
Frame rate : 25.000 FPS
Color space : YUV
Chroma subsampling : 4:2:0
Bit depth : 8 bits
Bits/(Pixel*Frame) : 0.082
Stream size : 5.38 GiB (97%)
Language : Chinese
Default : Yes
Forced : No

Audio #1
ID : 2
Format : AAC LC
Format/Info : Advanced Audio Codec Low Complexity
Codec ID : A_AAC-2
Duration : 45 min 11 s
Bit rate : 192 kb/s
Channel(s) : 2 channels
Channel layout : L R
Sampling rate : 44.1 kHz
Frame rate : 43.066 FPS (1024 SPF)
Compression mode : Lossy
Stream size : 62.0 MiB (1%)
Default : No
Forced : No

Audio #2
ID : 3
Format : E-AC-3
Format/Info : Enhanced AC-3
Commercial name : Dolby Digital Plus
Codec ID : A_EAC3
Duration : 45 min 10 s
Bit rate mode : Constant
Bit rate : 256 kb/s
Channel(s) : 6 channels
Channel layout : L R C LFE Ls Rs
Sampling rate : 48.0 kHz
Frame rate : 31.250 FPS (1536 SPF)
Compression mode : Lossy
Stream size : 82.7 MiB (1%)
Title : zh-ch [Dolby Digital Plus 5.1]
Language : Chinese
Service kind : Complete Main
Default : Yes
Forced : No


部分资源为软字幕,移动端推荐播放器:MxPlayer,nPlayer,infuse ,其他播放器请自行尝试。

部分资源为软字幕,电脑端推荐播放器:PotPlayer,完美解码,KMPLAYER,其他播放器请自行尝试。

下载端推荐纯BT下载软件:qBittorrent,Bitcomet,uTorrent ,其他下载软件请自行尝试。不支持吸血迅雷。

上传的附件:
最新回复 (0)