2024 大陆 剧情 WEB-1080P 今天的她们[第09-10集][国语音轨/简繁英字幕].Fry.Me.to.the.Moon.S01.2024.1080p.WeTV.WEB-DL.H264.AAC-BlackTV 0.70GB

Katt2092T 2024-04-03 02:07 416


完整标题:今天的她们[第09-10集][国语音轨/简繁英字幕].Fry.Me.to.the.Moon.S01.2024.1080p.WeTV.WEB-DL.H264.AAC-BlackTV 0.70GB




◎标  题 今天的她们
◎年  代 2024
◎产  地 中国大陆
◎类  别 剧情
◎语  言 汉语普通话
◎IMDb链接 https://www.imdb.com/title/tt31888837/
◎豆瓣链接 https://movie.douban.com/subject/35370850/
◎导  演 杜晓雨 Xiaoyu Du
◎编  剧 秦雯 Wen Qin
      许思窈 Siyao Xu
◎演  员 宋轶 Yi Song
      佘诗曼 Charmaine Sheh
      李纯 Chun Li
      张国立 Guoli Zhang
      张超 Juck Zhang
      王仁君 Renjun Wang
      李俊贤 Junxian Li
      沈盛男 Shengnan Shen
      苏爱婷 Aiting Su
      贝勒 Lei Bei

◎简  介
    路真真为爱离开北京回到成都,梁清然被总公司派去收购老字号川白楼,路真真选择帮助闺蜜顾漫婷一起度过川白楼的经营危机,一场关于美食“传承与守护”的故事,让三位性格各异的女性“不打不相识”。经过爱情 、事业、理想的层层考验,她们又将在烟火成都迈向怎样的人生新阶段……

##### MediaInfo ######
General
Unique ID : 194288460635880906550409573817268679992 (0x922A98AEE644C5E886379BAEEAB1B538)
Complete name : Fry.Me.to.the.Moon.S01E09.2024.1080p.WeTV.WEB-DL.H264.AAC-BlackTV.mkv
Duration : 44 min 43 s
Overall bit rate : 1 159 kb/s

Video
ID : 1
Format : AVC
Format/Info : Advanced Video Codec
Format profile : High@L4
Format settings : CABAC / 4 Ref Frames
Format settings, CABAC : Yes
Format settings, Reference frames : 4 frames
Codec ID : V_MPEG4/ISO/AVC
Duration : 44 min 43 s
Bit rate : 1 063 kb/s
Width : 1 920 pixels
Height : 804 pixels
Display aspect ratio : 2.40:1
Frame rate mode : Constant
Frame rate : 25.000 FPS
Color space : YUV
Chroma subsampling : 4:2:0
Bit depth : 8 bits
Scan type : Progressive
Bits/(Pixel*Frame) : 0.028
Stream size : 340 MiB (92%)
Language : Chinese
Default : Yes
Forced : No
Color range : Limited
Color primaries : BT.709
Transfer characteristics : BT.709
Matrix coefficients : BT.709

Audio
ID : 2
Format : AAC LC
Format/Info : Advanced Audio Codec Low Complexity
Codec ID : A_AAC-2
Duration : 44 min 43 s
Bit rate : 93.4 kb/s
Channel(s) : 2 channels
Channel layout : L R
Sampling rate : 48.0 kHz
Frame rate : 46.875 FPS (1024 SPF)
Compression mode : Lossy
Delay relative to video : -42 ms
Stream size : 29.9 MiB (8%)
Title : Mandarin [AAC2.0]
Language : Chinese
Default : No
Forced : No

Text #1
ID : 3
Format : UTF-8
Codec ID : S_TEXT/UTF8
Codec ID/Info : UTF-8 Plain Text
Duration : 40 min 41 s
Bit rate : 45 b/s
Frame rate : 0.311 FPS
Count of elements : 760
Stream size : 13.6 KiB (0%)
Title : Chinese (Simplified)
Language : Chinese
Default : Yes
Forced : No

Text #2
ID : 4
Format : UTF-8
Codec ID : S_TEXT/UTF8
Codec ID/Info : UTF-8 Plain Text
Duration : 40 min 41 s
Bit rate : 45 b/s
Frame rate : 0.311 FPS
Count of elements : 760
Stream size : 13.6 KiB (0%)
Title : Chinese (Traditional)
Language : Chinese
Default : No
Forced : No

Text #3
ID : 5
Format : UTF-8
Codec ID : S_TEXT/UTF8
Codec ID/Info : UTF-8 Plain Text
Duration : 43 min 41 s
Bit rate : 55 b/s
Frame rate : 0.249 FPS
Count of elements : 654
Stream size : 17.9 KiB (0%)
Title : English
Language : English
Default : No
Forced : No


部分资源为软字幕,移动端推荐播放器:MxPlayer,nPlayer,infuse ,其他播放器请自行尝试。

部分资源为软字幕,电脑端推荐播放器:PotPlayer,完美解码,KMPLAYER,其他播放器请自行尝试。

下载端推荐纯BT下载软件:qBittorrent,Bitcomet,uTorrent ,其他下载软件请自行尝试。不支持吸血迅雷。

上传的附件:
最新回复 (0)