2024 大陆 剧情 WEB-4K 今天的她们[第11-12集][国语配音/中文字幕].Fry.me.to.the.moon.S01.2024.2160p.WEB-DL.H265.AAC-LelveTV 2.06GB

MAY20919R 2024-04-03 02:09 504


完整标题:今天的她们[第11-12集][国语配音/中文字幕].Fry.me.to.the.moon.S01.2024.2160p.WEB-DL.H265.AAC-LelveTV 2.06GB




◎标  题 今天的她们
◎年  代 2024
◎产  地 中国大陆
◎类  别 剧情
◎语  言 汉语普通话
◎IMDb链接 https://www.imdb.com/title/tt31888837/
◎豆瓣链接 https://movie.douban.com/subject/35370850/
◎导  演 杜晓雨 Xiaoyu Du
◎编  剧 秦雯 Wen Qin
      许思窈 Siyao Xu
◎演  员 宋轶 Yi Song
      佘诗曼 Charmaine Sheh
      李纯 Chun Li
      张国立 Guoli Zhang
      张超 Juck Zhang
      王仁君 Renjun Wang
      李俊贤 Junxian Li
      沈盛男 Shengnan Shen
      苏爱婷 Aiting Su
      贝勒 Lei Bei

◎简  介
    路真真为爱离开北京回到成都,梁清然被总公司派去收购老字号川白楼,路真真选择帮助闺蜜顾漫婷一起度过川白楼的经营危机,一场关于美食“传承与守护”的故事,让三位性格各异的女性“不打不相识”。经过爱情 、事业、理想的层层考验,她们又将在烟火成都迈向怎样的人生新阶段……

##### MediaInfo ######
General
Complete name : Fry.me.to.the.moon.S01E11.2024.2160p.WEB-DL.H265.AAC-LelveTV.mp4
Duration : 44 min 27 s
Overall bit rate mode : Variable
Overall bit rate : 2 651 kb/s

Video
ID : 1
Format : HEVC
Format/Info : High Efficiency Video Coding
Format profile : Main@L5@Main
Codec ID : hev1
Codec ID/Info : High Efficiency Video Coding
Duration : 44 min 27 s
Source duration : 44 min 27 s
Bit rate : 2 519 kb/s
Width : 3 840 pixels
Height : 1 610 pixels
Display aspect ratio : 2.40:1
Frame rate mode : Variable
Frame rate : 25.000 FPS
Minimum frame rate : 24.993 FPS
Maximum frame rate : 25.007 FPS
Color space : YUV
Chroma subsampling : 4:2:0
Bit depth : 8 bits
Bits/(Pixel*Frame) : 0.016
Stream size : 801 MiB (95%)
Source stream size : 801 MiB (95%)
Writing library : Tencent-V265-1.6.9.1-p1k184g16lh64f4ra1.
Color range : Limited
Color primaries : BT.709
Transfer characteristics : BT.709
Matrix coefficients : BT.709
mdhd_Duration : 2667440
Codec configuration box : hvcC

Audio
ID : 2
Format : AAC LC
Format/Info : Advanced Audio Codec Low Complexity
Codec ID : mp4a-40-2
Duration : 44 min 27 s
Bit rate mode : Variable
Bit rate : 125 kb/s
Maximum bit rate : 129 kb/s
Channel(s) : 2 channels
Channel layout : L R
Sampling rate : 48.0 kHz
Frame rate : 46.875 FPS (1024 SPF)
Compression mode : Lossy
Stream size : 39.9 MiB (5%)
Default : Yes
Alternate group : 1


部分资源为软字幕,移动端推荐播放器:MxPlayer,nPlayer,infuse ,其他播放器请自行尝试。

部分资源为软字幕,电脑端推荐播放器:PotPlayer,完美解码,KMPLAYER,其他播放器请自行尝试。

下载端推荐纯BT下载软件:qBittorrent,Bitcomet,uTorrent ,其他下载软件请自行尝试。不支持吸血迅雷。

上传的附件:
最新回复 (0)