2024 大陆 真人秀 WEB-1080P 今晚开放麦 第二季[第12集][国语配音/中文字幕].Open.Mic.Tonight.S02.2024.1080p.WEB-DL.H264.AAC-LelveTV 1.15GB

Katt2092T 2024-04-03 02:11 560


完整标题:今晚开放麦 第二季[第12集][国语配音/中文字幕].Open.Mic.Tonight.S02.2024.1080p.WEB-DL.H264.AAC-LelveTV 1.15GB




◎标  题 今晚开放麦 第二季
◎年  代 2024
◎产  地 中国大陆
◎类  别 真人秀 / 脱口秀
◎语  言 汉语普通话
◎IMDb链接 https://www.imdb.com/title//
◎豆瓣链接 https://movie.douban.com/subject/36700699/
◎演  员 岳云鹏 Yunpeng Yue
      常远 Yuan Chang
      蔡明 Ming Cai
      傅首尔 Shou'er Fu
      吉娜·爱丽丝 Gina Alice Redlinger
      金莎 Sha Jin
      刘维 Julius
      柳岩 Yan Liu
      刘雅瑟 Yase Liu
      庞博 Bo Pang
      潘长江 Changjiang Pan
      任贤齐 Richie Jen
      苏醒 Allen Su
      孙悦 Yue Sun
      汪东城 Jiro Wang
      文松 Song Wen
      小沈阳 Xiao Shen-Yang
      沈春阳 Chunyang Shen
      许绍洋 Ambrose Hui
      袁咏仪 Anita Yuen
      张大大 Dada Zhang
      方媛 Moka Fang

◎简  介
    这是一档快乐分享秀节目,第二季由岳云鹏担当主理人,每期一个主题,邀请不同领域的名人来到“开放麦”的舞台,分享他们的个人经历和成长故事。节目区别于“一根杆、一个麦”的单人脱口秀展示,强调用戏剧感的舞台包装,巧妙的多形式表演,帮助嘉宾呈现一场场“不一样的脱口秀”, 打造高规格、精英化的脱口秀平台,通过幽默风趣的语言传达动人的情感和多样的人生态度,给观众带去更多向上的力量。

##### MediaInfo ######
General
Unique ID : 68902943801676113796068243797854809814 (0x33D63969EAA14A0B813C07BFECD26ED6)
Complete name : Open.Mic.Tonight.S02E12.2024.1080p.WEB-DL.H264.AAC-LelveTV.mkv
Duration : 1 h 1 min
Overall bit rate : 2 671 kb/s

Video
ID : 1
Format : AVC
Format/Info : Advanced Video Codec
Format profile : High@L4
Format settings : CABAC / 3 Ref Frames
Format settings, CABAC : Yes
Format settings, Reference frames : 3 frames
Codec ID : V_MPEG4/ISO/AVC
Duration : 1 h 1 min
Bit rate : 2 479 kb/s
Width : 1 920 pixels
Height : 1 080 pixels
Display aspect ratio : 16:9
Frame rate mode : Constant
Frame rate : 25.000 FPS
Color space : YUV
Chroma subsampling : 4:2:0
Bit depth : 8 bits
Scan type : Progressive
Bits/(Pixel*Frame) : 0.048
Stream size : 1.07 GiB (93%)
Language : Chinese
Default : Yes
Forced : No
Color range : Limited
Color primaries : BT.709
Transfer characteristics : BT.709
Matrix coefficients : BT.709

Audio
ID : 2
Format : AAC LC
Format/Info : Advanced Audio Codec Low Complexity
Codec ID : A_AAC-2
Duration : 1 h 1 min
Bit rate : 192 kb/s
Channel(s) : 2 channels
Channel layout : L R
Sampling rate : 44.1 kHz
Frame rate : 43.066 FPS (1024 SPF)
Compression mode : Lossy
Stream size : 83.6 MiB (7%)
Default : No
Forced : No


部分资源为软字幕,移动端推荐播放器:MxPlayer,nPlayer,infuse ,其他播放器请自行尝试。

部分资源为软字幕,电脑端推荐播放器:PotPlayer,完美解码,KMPLAYER,其他播放器请自行尝试。

下载端推荐纯BT下载软件:qBittorrent,Bitcomet,uTorrent ,其他下载软件请自行尝试。不支持吸血迅雷。

上传的附件:
最新回复 (0)