2024 大陆 真人秀 WEB-4K 半熟恋人 第三季[第19集][国语配音/中文字幕].Love.Actually.S03.2021.2160p.WEB-DL.H265.AAC-LelveTV 3.80GB

MAY20919R 2024-04-03 02:20 1446


完整标题:半熟恋人 第三季[第19集][国语配音/中文字幕].Love.Actually.S03.2021.2160p.WEB-DL.H265.AAC-LelveTV 3.80GB




◎标  题 半熟恋人 第三季
◎译  名 半熟恋人3 / 半熟恋人海岛季
◎年  代 2024
◎产  地 中国大陆
◎类  别 真人秀
◎语  言 汉语普通话
◎IMDb链接 https://www.imdb.com/title//
◎豆瓣链接 https://movie.douban.com/subject/36540870/
◎演  员 金靖 Jing Jin
      唐艺昕 Yixin Tang
      谢楠 Nan Xie
      张纯烨 Chunye Zhang
      罗拉 La Luo
      王能能 Nengneng Wang
      凌忆 Yi Ling
      陈巧葳 Pamela
      苏锐 Rui Su
      许莉 Li Xu
      江俊霖 Kelvin
      马晋隆 Jinlong Ma
      王震 Zhen Wang
      邵佳荣 Jiarong Shao
      蔡文静 Wenjing Cai
      庞博 Bo Pang
      沈正 Zheng Shen
      李梦蝶 Mengdie Li
      于敬阳 Jingyang Yu
      卢嘉俊 Jiajun Lu

◎简  介
    智者勇入爱河,开启成年人的“恋爱高端局”。该节目是⼀档轻熟龄恋爱观察真人秀。八位首发半熟恋人与四位半熟鲶鱼,迎着热烈的海风入住半熟小屋,脱离惯常的生活,放下工作,开启一场为期21天的恋爱GAP之旅,在寻爱的同时照见真实自我,人生半熟之时,为爱热烈一次。

##### MediaInfo ######
General
Complete name : Love.Actually.S03E19.2021.2160p.WEB-DL.H265.AAC-LelveTV.mp4
Duration : 1 h 11 min
Overall bit rate mode : Variable
Overall bit rate : 7 637 kb/s

Video
ID : 1
Format : HEVC
Format/Info : High Efficiency Video Coding
Format profile : Main@L5@Main
Codec ID : hev1
Codec ID/Info : High Efficiency Video Coding
Duration : 1 h 11 min
Source duration : 1 h 11 min
Bit rate : 7 506 kb/s
Width : 3 840 pixels
Height : 2 160 pixels
Display aspect ratio : 16:9
Frame rate mode : Variable
Frame rate : 25.000 FPS
Minimum frame rate : 24.993 FPS
Maximum frame rate : 25.007 FPS
Color space : YUV
Chroma subsampling : 4:2:0
Bit depth : 8 bits
Bits/(Pixel*Frame) : 0.036
Stream size : 3.74 GiB (98%)
Source stream size : 3.74 GiB (98%)
Writing library : Tencent-V265-1.6.9.1-p1k184g16lh64f4ra1.
Color range : Limited
Color primaries : BT.709
Transfer characteristics : BT.709
Matrix coefficients : BT.709
Codec configuration box : hvcC

Audio
ID : 2
Format : AAC LC
Format/Info : Advanced Audio Codec Low Complexity
Codec ID : mp4a-40-2
Duration : 1 h 11 min
Bit rate mode : Variable
Bit rate : 125 kb/s
Maximum bit rate : 128 kb/s
Channel(s) : 2 channels
Channel layout : L R
Sampling rate : 48.0 kHz
Frame rate : 46.875 FPS (1024 SPF)
Compression mode : Lossy
Stream size : 63.9 MiB (2%)
Default : Yes
Alternate group : 1


部分资源为软字幕,移动端推荐播放器:MxPlayer,nPlayer,infuse ,其他播放器请自行尝试。

部分资源为软字幕,电脑端推荐播放器:PotPlayer,完美解码,KMPLAYER,其他播放器请自行尝试。

下载端推荐纯BT下载软件:qBittorrent,Bitcomet,uTorrent ,其他下载软件请自行尝试。不支持吸血迅雷。

上传的附件:
最新回复 (0)