2024 大陆 喜剧 WEB-1080P 小绿和小蓝 第五季[第04集][国语配音/中文字幕].BERYL.and.SAPPHIRE.S05.2018.1080p.WEB-DL.H264.AAC-LelveTV 0.12GB

Katt2092T 2024-04-03 17:59 218


完整标题:小绿和小蓝 第五季[第04集][国语配音/中文字幕].BERYL.and.SAPPHIRE.S05.2018.1080p.WEB-DL.H264.AAC-LelveTV 0.12GB




◎标  题 小绿和小蓝 第五季
◎年  代 2024
◎产  地 中国大陆
◎类  别 喜剧 / 动画
◎IMDb链接 https://www.imdb.com/title//
◎豆瓣链接 https://movie.douban.com/subject/36800191/

◎简  介
    伯伦希尔魔法学院的教授永乐在图书馆偶遇了一只叫灰羽的精灵,得知精灵都是有愿望未完成才会留在世间,永乐决定帮灰羽完达成愿望。因为灰羽喜欢听永乐读书,永乐便经常与灰羽挑灯夜读,灰羽也一直听得兴致盎然,一人一精灵相处好不融洽。可没想到当永乐帮助灰羽实体化之后,灰羽竟然性情大变,为了让灰羽不再继续黑化,永乐不得不让灰羽消失在世间……

##### MediaInfo ######
General
Complete name : BERYL.and.SAPPHIRE.S05E04.2018.1080p.WEB-DL.H264.AAC-LelveTV.mp4
Duration : 8 min 58 s
Overall bit rate : 1 882 kb/s

Video
ID : 1
Format : AVC
Format/Info : Advanced Video Codec
Format profile : High@L5
Format settings : CABAC / 6 Ref Frames
Format settings, CABAC : Yes
Format settings, Reference frames : 6 frames
Codec ID : avc1
Codec ID/Info : Advanced Video Coding
Duration : 8 min 58 s
Bit rate : 1 688 kb/s
Width : 1 920 pixels
Height : 1 080 pixels
Display aspect ratio : 16:9
Frame rate mode : Variable
Frame rate : 24.000 FPS
Minimum frame rate : 23.810 FPS
Maximum frame rate : 24.390 FPS
Color space : YUV
Chroma subsampling : 4:2:0
Bit depth : 8 bits
Scan type : Progressive
Bits/(Pixel*Frame) : 0.034
Stream size : 108 MiB (90%)
Encoded date : UTC 2024-04-03 02:00:00
Tagged date : UTC 2024-04-03 02:00:00
Color range : Limited
Color primaries : BT.709
Transfer characteristics : BT.709
Matrix coefficients : BT.709
Codec configuration box : avcC

Audio
ID : 2
Format : AAC LC
Format/Info : Advanced Audio Codec Low Complexity
Codec ID : mp4a-40-2
Duration : 8 min 58 s
Bit rate mode : Constant
Bit rate : 178 kb/s
Channel(s) : 2 channels
Channel layout : L R
Sampling rate : 48.0 kHz
Frame rate : 46.875 FPS (1024 SPF)
Compression mode : Lossy
Stream size : 11.4 MiB (9%)
Default : Yes
Alternate group : 1
Encoded date : UTC 2024-04-03 02:00:00
Tagged date : UTC 2024-04-03 02:00:00


部分资源为软字幕,移动端推荐播放器:MxPlayer,nPlayer,infuse ,其他播放器请自行尝试。

部分资源为软字幕,电脑端推荐播放器:PotPlayer,完美解码,KMPLAYER,其他播放器请自行尝试。

下载端推荐纯BT下载软件:qBittorrent,Bitcomet,uTorrent ,其他下载软件请自行尝试。不支持吸血迅雷。

上传的附件:
最新回复 (0)