2023 大陆 动画 WEB-4K 少年歌行 海外仙山篇[第25集][国语配音/中文字幕].Youths.and.Golden.Coffin.S03.2018.2160p.WEB-DL.H265.AAC-LelveTV 0.86GB

Katt2092T 2024-04-03 18:02 645


完整标题:少年歌行 海外仙山篇[第25集][国语配音/中文字幕].Youths.and.Golden.Coffin.S03.2018.2160p.WEB-DL.H265.AAC-LelveTV 0.86GB




◎标  题 少年歌行 海外仙山篇
◎译  名 少年歌行 第三季
◎年  代 2023
◎产  地 中国大陆
◎类  别 动画 / 武侠
◎语  言 汉语普通话
◎IMDb链接 https://www.imdb.com/title//
◎豆瓣链接 https://movie.douban.com/subject/35954290/
◎导  演 陈升垚 Shengyao Chen
◎编  剧 陈升垚 Shengyao Chen
◎演  员 赵毅 Yi Zhao
      张博恒 Boheng Zhang
      张杰 Jie Zhang
      褚珺 Jun Chu
      唐小喜 Xiaoxi Tang
      魏超 Chao Wei
      黎筱濛 Xiaomeng Li
      羊仔
      李璐 Lu Li
      张磊 Lei Zhang
      齐斯伽 Sijia Qi
      苏俣 Yu Su
      刘思岑 Sicen Liu
      王晨光 Chenguang Wang
      赵铭洲 Mingzhou Zhao
      钱文青 Wenqing Qian

◎简  介
    行到水穷处,坐看云起时。雷家堡一战后,雷家家主战死,剑仙陨落,萧瑟强行使用内力导致自身生命垂危。为挽救萧瑟,众人踏向神秘的海外仙山,只为寻找那传说之中的仙人。而与此同时的朝堂与江湖之争,仍在继续。

##### MediaInfo ######
General
Complete name : Youths.and.Golden.Coffin.S03E25.2018.2160p.WEB-DL.H265.AAC-LelveTV.mp4
Duration : 19 min 42 s
Overall bit rate : 6 214 kb/s

Video
ID : 1
Format : HEVC
Format/Info : High Efficiency Video Coding
Format profile : [email protected]@Main
Codec ID : hev1
Codec ID/Info : High Efficiency Video Coding
Duration : 19 min 42 s
Bit rate : 6 012 kb/s
Width : 3 840 pixels
Height : 2 160 pixels
Display aspect ratio : 16:9
Frame rate mode : Constant
Frame rate : 25.000 FPS
Color space : YUV
Chroma subsampling : 4:2:0
Bit depth : 8 bits
Bits/(Pixel*Frame) : 0.029
Stream size : 848 MiB (97%)
Encoded date : UTC 2024-04-03 02:00:00
Tagged date : UTC 2024-04-03 02:00:00
Color range : Limited
Color primaries : BT.709
Transfer characteristics : BT.709
Matrix coefficients : BT.709
Menus : 4
Codec configuration box : hvcC

Audio
ID : 2
Format : AAC LC
Format/Info : Advanced Audio Codec Low Complexity
Codec ID : mp4a-40-2
Duration : 19 min 42 s
Bit rate mode : Constant
Bit rate : 192 kb/s
Channel(s) : 2 channels
Channel layout : L R
Sampling rate : 48.0 kHz
Frame rate : 46.875 FPS (1024 SPF)
Compression mode : Lossy
Stream size : 26.9 MiB (3%)
Default : Yes
Alternate group : 1
Encoded date : UTC 2024-04-03 02:00:00
Tagged date : UTC 2024-04-03 02:00:00
Menus : 4

Menu #1
ID : 4
Format : Timed Text
Codec ID : text
Duration : 19 min 42 s
Language : English
Encoded date : UTC 2024-04-03 02:00:00
Tagged date : UTC 2024-04-03 02:00:00
Bit rate mode : CBR
Menu For : 1,2
00:00:00.000 : 正片
00:00:32.000 : 片头
00:02:05.000 : 正片
00:18:06.000 : 片尾
Bit rate mode : Constant

Menu #2
00:00:00.000 : 正片
00:00:32.000 : 片头
00:02:05.000 : 正片
00:18:06.000 : 片尾


部分资源为软字幕,移动端推荐播放器:MxPlayer,nPlayer,infuse ,其他播放器请自行尝试。

部分资源为软字幕,电脑端推荐播放器:PotPlayer,完美解码,KMPLAYER,其他播放器请自行尝试。

下载端推荐纯BT下载软件:qBittorrent,Bitcomet,uTorrent ,其他下载软件请自行尝试。不支持吸血迅雷。

上传的附件:
最新回复 (0)