2024 大陆 动画 WEB-1080P 异人君莫邪[第12集][国语配音/中文字幕].Otherworldly.Evil.Monarch.S01.2024.1080p.WEB-DL.H264.AAC-LelveTV 0.96GB

RAY20920M 2024-04-03 18:04 229


完整标题:异人君莫邪[第12集][国语配音/中文字幕].Otherworldly.Evil.Monarch.S01.2024.1080p.WEB-DL.H264.AAC-LelveTV 0.96GB




◎标  题 异人君莫邪
◎译  名 异世邪君 / Otherworldly Evil Monarch
◎年  代 2024
◎产  地 中国大陆
◎类  别 动画
◎语  言 汉语普通话
◎IMDb链接 https://www.imdb.com/title//
◎豆瓣链接 https://movie.douban.com/subject/36141015/
◎编  剧 李金芙
◎演  员 杨昕燃
      沈念如 Nianru Shen
      邓宥希 Deng Youxi
      李轻扬 Qingyang Li
      关帅 Shuai Guan
      李楠 Nan Li
      黑特
      叶知秋 Zhiqiu Ye
      图特哈蒙 Sheng Feng
      汤水雨 Shuiyu Tang
      高增志 Zengzhi Gao
      巫蛊悠悠 Haojia Li
      乔木心 Muxin Qiao
      瞳音 Cheng Xue
      张恩泽 Enze Zhang
      柳真颜 Zhenyan Liu
      刘明月 Mingyue Liu
      常蓉珊 Rongshan Chang

◎简  介
    战无不胜的王牌特工君邪意外来到玄玄大陆,成为一个活着浪费空气,死了浪费土地的纨绔子弟君莫邪,其家族也深陷泥潭,苟延残喘。身体虽然是君莫邪的,心却是君邪的心,九幽天地无双客,亘古红尘我第一,且看君邪如何荡尽邪恶,快意恩仇,谱写一代传奇。

##### MediaInfo ######
General
Complete name : Otherworldly.Evil.Monarch.S01E12.2024.1080p.WEB-DL.H264.AAC-LelveTV.mp4
Duration : 28 min 19 s
Overall bit rate : 4 846 kb/s

Video
ID : 1
Format : AVC
Format/Info : Advanced Video Codec
Format profile : High@L5
Format settings : CABAC / 6 Ref Frames
Format settings, CABAC : Yes
Format settings, Reference frames : 6 frames
Codec ID : avc1
Codec ID/Info : Advanced Video Coding
Duration : 28 min 19 s
Bit rate : 4 656 kb/s
Width : 1 920 pixels
Height : 816 pixels
Display aspect ratio : 2.35:1
Frame rate mode : Constant
Frame rate : 25.000 FPS
Color space : YUV
Chroma subsampling : 4:2:0
Bit depth : 8 bits
Scan type : Progressive
Bits/(Pixel*Frame) : 0.119
Stream size : 943 MiB (96%)
Encoded date : UTC 2024-04-03 03:00:00
Tagged date : UTC 2024-04-03 03:00:00
Color range : Limited
Color primaries : BT.709
Transfer characteristics : BT.709
Matrix coefficients : BT.709
Codec configuration box : avcC

Audio
ID : 2
Format : AAC LC
Format/Info : Advanced Audio Codec Low Complexity
Codec ID : mp4a-40-2
Duration : 28 min 19 s
Bit rate mode : Constant
Bit rate : 180 kb/s
Channel(s) : 2 channels
Channel layout : L R
Sampling rate : 48.0 kHz
Frame rate : 46.875 FPS (1024 SPF)
Compression mode : Lossy
Stream size : 36.5 MiB (4%)
Default : Yes
Alternate group : 1
Encoded date : UTC 2024-04-03 03:00:00
Tagged date : UTC 2024-04-03 03:00:00


部分资源为软字幕,移动端推荐播放器:MxPlayer,nPlayer,infuse ,其他播放器请自行尝试。

部分资源为软字幕,电脑端推荐播放器:PotPlayer,完美解码,KMPLAYER,其他播放器请自行尝试。

下载端推荐纯BT下载软件:qBittorrent,Bitcomet,uTorrent ,其他下载软件请自行尝试。不支持吸血迅雷。

上传的附件:
最新回复 (0)