2024 大陆 爱情 WEB-1080P 惜花芷[第07-08集][国语配音/中文字幕].Blossoms.in.Adversity.S01.2024.1080p.WEB-DL.H264.AAC-BlackTV 0.71GB

RAY20920M 2024-04-03 18:05 517


完整标题:惜花芷[第07-08集][国语配音/中文字幕].Blossoms.in.Adversity.S01.2024.1080p.WEB-DL.H264.AAC-BlackTV 0.71GB




◎标  题 惜花芷
◎年  代 2024
◎产  地 中国大陆
◎类  别 爱情 / 古装
◎语  言 汉语普通话
◎IMDb链接 https://www.imdb.com/title/tt29571476/
◎豆瓣链接 https://movie.douban.com/subject/36299980/
◎导  演 朱锐斌 Yui-bun Chu
◎编  剧 何妨 Fang He
◎演  员 胡一天 Yitian Hu
      张婧仪 Joy Zhang
      吴希泽 Caesar Wu
      卢昱晓 Yuxiao Lu
      边程 Cheng Bian
      胡杏儿 Myolie Wu
      刘佳 Jia Liu
      海一天 Yitian Hai
      杨明娜 Minna Yang
      高雄 Eddy Ko
      田淼 Miao Tian
      方楚彤 Chutong Fang
      胡春杨 Chunyang Hu
      梁芷菁 Zhijing Liang
      黄思瑞 Sirui Huang
      王乔熙 Qiaoxi Wang
      陈恒 Heng Chen
      张舒妍 Shuyan Zhang
      钟小淇 Xiaoqi Zhong
      王丽娜 Lina Wang
      姚筱筱 Cola
      殷玥 Yue Yin
      林静 Jing Lin
      陈子萱 Zixuan Chen

◎简  介
    清贵花府忽遭抄家流放,只剩满门妇孺走投无路。大小姐花芷(张婧仪 饰)不再装傻藏拙,带领女人们上演“贵妇变形记”,在跌跌撞撞中摆脱饥寒与危机,亦将鬼惊神怕的七宿司使顾晏惜(胡一天 饰),变成人见人爱的好男友“晏先生”。一路吵闹一路温情,花芷也从落难闺秀成长为一家之主,向着闪光的新生活进发。

##### MediaInfo ######
General
Unique ID : 311597015795680146293263626794652170819 (0xEA6B66FF1DAE24BD094EDD77B5387A43)
Complete name : Blossoms.in.Adversity.S01E07.2024.1080p.WEB-DL.H264.AAC-BlackTV.mkv
Duration : 45 min 46 s
Overall bit rate : 1 208 kb/s

Video
ID : 1
Format : AVC
Format/Info : Advanced Video Codec
Format profile : High@L5
Format settings : CABAC / 5 Ref Frames
Format settings, CABAC : Yes
Format settings, Reference frames : 5 frames
Codec ID : V_MPEG4/ISO/AVC
Duration : 45 min 46 s
Bit rate : 1 110 kb/s
Width : 1 920 pixels
Height : 808 pixels
Display aspect ratio : 2.40:1
Frame rate mode : Constant
Frame rate : 25.000 FPS
Color space : YUV
Chroma subsampling : 4:2:0
Bit depth : 8 bits
Scan type : Progressive
Bits/(Pixel*Frame) : 0.029
Stream size : 363 MiB (92%)
Language : Chinese
Default : Yes
Forced : No
Color range : Limited
Color primaries : BT.709
Transfer characteristics : BT.709
Matrix coefficients : BT.709
VENDOR_ID : [0][0][0][0]

Audio
ID : 2
Format : AAC LC
Format/Info : Advanced Audio Codec Low Complexity
Codec ID : A_AAC-2
Duration : 45 min 46 s
Bit rate : 96.0 kb/s
Channel(s) : 2 channels
Channel layout : L R
Sampling rate : 44.1 kHz
Frame rate : 43.066 FPS (1024 SPF)
Compression mode : Lossy
Stream size : 31.4 MiB (8%)
Title : Mandarin [AAC2.0]
Language : Chinese
Default : No
Forced : No
VENDOR_ID : [0][0][0][0]

Menu
00:04:25.871 : zh:花芷驾车送别家中男丁 祖父谆谆教导
00:13:33.475 : zh:顾晏惜宪王虎狼相争 花芷挺身护家人
00:21:06.501 : zh:顾晏惜假扮夫妻带花芷看诊 二人河边谈心
00:33:30.519 : zh:花家女眷急寻人 花芷归家与家人争执


点击图片可查看大图

软字幕无法在截图上展现,HDR版本/杜比视界版本截图会出现颜色异常,请使用支持的设备播放!

部分资源为软字幕,移动端推荐播放器:MxPlayer,nPlayer,infuse ,其他播放器请自行尝试。

部分资源为软字幕,电脑端推荐播放器:PotPlayer,完美解码,KMPLAYER,其他播放器请自行尝试。

下载端推荐纯BT下载软件:qBittorrent,Bitcomet,uTorrent ,其他下载软件请自行尝试。不支持吸血迅雷。

上传的附件:
最新回复 (0)