2024 大陆 剧情 WEB-1080P 爆梗脱口秀[第18集][国语配音/中文字幕].Bao.Geng.Tuo.Kou.Xiu.S01.2024.1080p.WEB-DL.H264.AAC-LelveTV 0.15GB

Katt2092T 2024-04-03 18:09 270


完整标题:爆梗脱口秀[第18集][国语配音/中文字幕].Bao.Geng.Tuo.Kou.Xiu.S01.2024.1080p.WEB-DL.H264.AAC-LelveTV 0.15GB




◎标  题 爆梗脱口秀
◎年  代 2024
◎产  地 中国大陆
◎语  言 汉语普通话
◎IMDb链接 https://www.imdb.com/title//
◎豆瓣链接 https://movie.douban.com/subject/36822693/
◎演  员 李雪琴 Xueqin Li
      王勉 Mian Wang
      徐志胜 Zhisheng Xu
      何广智 Guangzhi He
      庞博 Bo Pang
      鸟鸟

◎简  介
    爆梗脱口秀,金句天天有~

##### MediaInfo ######
General
Complete name : Bao.Geng.Tuo.Kou.Xiu.S01E18.2024.1080p.WEB-DL.H264.AAC-LelveTV.mp4
Duration : 14 min 21 s
Overall bit rate mode : Variable
Overall bit rate : 1 518 kb/s

Video
ID : 1
Format : AVC
Format/Info : Advanced Video Codec
Format profile : High@L4
Format settings : CABAC / 4 Ref Frames
Format settings, CABAC : Yes
Format settings, Reference frames : 4 frames
Codec ID : avc1
Codec ID/Info : Advanced Video Coding
Duration : 14 min 21 s
Source duration : 14 min 21 s
Bit rate : 1 418 kb/s
Width : 1 920 pixels
Height : 1 080 pixels
Display aspect ratio : 16:9
Frame rate mode : Variable
Frame rate : 25.000 FPS
Minimum frame rate : 24.993 FPS
Maximum frame rate : 25.007 FPS
Color space : YUV
Chroma subsampling : 4:2:0
Bit depth : 8 bits
Scan type : Progressive
Bits/(Pixel*Frame) : 0.027
Stream size : 146 MiB (93%)
Source stream size : 146 MiB (93%)
Color range : Limited
Color primaries : BT.709
Transfer characteristics : BT.709
Matrix coefficients : BT.709
Codec configuration box : avcC

Audio
ID : 2
Format : AAC LC
Format/Info : Advanced Audio Codec Low Complexity
Codec ID : mp4a-40-2
Duration : 14 min 21 s
Bit rate mode : Variable
Bit rate : 93.4 kb/s
Maximum bit rate : 97.0 kb/s
Channel(s) : 2 channels
Channel layout : L R
Sampling rate : 48.0 kHz
Frame rate : 46.875 FPS (1024 SPF)
Compression mode : Lossy
Stream size : 9.59 MiB (6%)
Default : Yes
Alternate group : 1


点击图片可查看大图

软字幕无法在截图上展现,HDR版本/杜比视界版本截图会出现颜色异常,请使用支持的设备播放!

部分资源为软字幕,移动端推荐播放器:MxPlayer,nPlayer,infuse ,其他播放器请自行尝试。

部分资源为软字幕,电脑端推荐播放器:PotPlayer,完美解码,KMPLAYER,其他播放器请自行尝试。

下载端推荐纯BT下载软件:qBittorrent,Bitcomet,uTorrent ,其他下载软件请自行尝试。不支持吸血迅雷。

上传的附件:
最新回复 (0)