2024 大陆 剧情 WEB-1080P 狂王[第07集][国语配音/中文字幕].Asura.S01.2024.1080p.WEB-DL.H264.AAC-LelveTV 0.39GB

Katt2092T 2024-04-03 18:11 296


完整标题:狂王[第07集][国语配音/中文字幕].Asura.S01.2024.1080p.WEB-DL.H264.AAC-LelveTV 0.39GB




◎标  题 狂王
◎译  名 西行纪之狂王 / Asura
◎年  代 2024
◎产  地 中国大陆
◎类  别 剧情 / 动作 / 动画 / 奇幻 / 冒险 / 古装
◎语  言 汉语普通话
◎IMDb链接 https://www.imdb.com/title//
◎豆瓣链接 https://movie.douban.com/subject/36055648/

◎简  介
    羸弱的阿修罗少年有鱼目睹部落被屠后爆发惊人潜能,因而被先祖獠忌掳走。有鱼经獠忌地狱式的死炼折磨得以脱胎换骨,修炼成斗神五感和独特的斗魂之道。完成死炼后,有鱼与好友时雨重逢,但阿修罗弱肉强食的规则却将时雨迫害致死。意识到自身强大才是唯一的出路,有鱼踏上成王之路,决意成为至强者改写阿修罗规则!

##### MediaInfo ######
General
Complete name : Asura.S01E07.2024.1080p.WEB-DL.H264.AAC-LelveTV.mp4
Duration : 17 min 3 s
Overall bit rate mode : Variable
Overall bit rate : 3 241 kb/s

Video
ID : 1
Format : AVC
Format/Info : Advanced Video Codec
Format profile : High@L4
Format settings : CABAC / 4 Ref Frames
Format settings, CABAC : Yes
Format settings, Reference frames : 4 frames
Codec ID : avc1
Codec ID/Info : Advanced Video Coding
Duration : 17 min 3 s
Source duration : 17 min 3 s
Bit rate : 3 140 kb/s
Width : 1 920 pixels
Height : 1 080 pixels
Display aspect ratio : 16:9
Frame rate mode : Variable
Frame rate : 24.000 FPS
Minimum frame rate : 23.994 FPS
Maximum frame rate : 24.006 FPS
Color space : YUV
Chroma subsampling : 4:2:0
Bit depth : 8 bits
Scan type : Progressive
Bits/(Pixel*Frame) : 0.063
Stream size : 383 MiB (97%)
Source stream size : 383 MiB (97%)
Color range : Limited
Color primaries : BT.709
Transfer characteristics : BT.709
Matrix coefficients : BT.709
Codec configuration box : avcC

Audio
ID : 2
Format : AAC LC
Format/Info : Advanced Audio Codec Low Complexity
Codec ID : mp4a-40-2
Duration : 17 min 3 s
Bit rate mode : Variable
Bit rate : 93.4 kb/s
Maximum bit rate : 97.1 kb/s
Channel(s) : 2 channels
Channel layout : L R
Sampling rate : 48.0 kHz
Frame rate : 46.875 FPS (1024 SPF)
Compression mode : Lossy
Stream size : 11.4 MiB (3%)
Default : Yes
Alternate group : 1


点击图片可查看大图

软字幕无法在截图上展现,HDR版本/杜比视界版本截图会出现颜色异常,请使用支持的设备播放!

部分资源为软字幕,移动端推荐播放器:MxPlayer,nPlayer,infuse ,其他播放器请自行尝试。

部分资源为软字幕,电脑端推荐播放器:PotPlayer,完美解码,KMPLAYER,其他播放器请自行尝试。

下载端推荐纯BT下载软件:qBittorrent,Bitcomet,uTorrent ,其他下载软件请自行尝试。不支持吸血迅雷。

上传的附件:
最新回复 (0)