2024 大陆 喜剧 WEB-4K 猜猜我是谁[高码版][第19集][国语配音/中文字幕].Guess.Who.I.Am.S01.2024.2160p.HQ.WEB-DL.H265.AAC-BlackTV 4.80GB

Katt2092T 2024-04-03 18:14 271


完整标题:猜猜我是谁[高码版][第19集][国语配音/中文字幕].Guess.Who.I.Am.S01.2024.2160p.HQ.WEB-DL.H265.AAC-BlackTV 4.80GB




◎标  题 猜猜我是谁
◎译  名 拜托!请别和我做朋友 / Guess Who I Am
◎年  代 2024
◎产  地 中国大陆
◎类  别 喜剧 / 爱情
◎语  言 汉语普通话
◎IMDb链接 https://www.imdb.com/title/tt31805997/
◎豆瓣链接 https://movie.douban.com/subject/35637218/
◎导  演 钟青 Qing Zhong
◎演  员 张予曦 Yuxi Zhang
      王子奇 Ziqi Wang
      柯乃予 Naiyu Ke
      韩东霖 Donglin Han
      王家茵 Qian Wang
      刘哲珲 Zhehui Liu
      王千果 Qianguo Wang
      莫小奇 Monica Mok
      郑玉 Yu Zheng
      贺鹏 Peng He
      杨超然 William
      李京沐 Jingmu Li
      江鹏 Peng Jiang
      刘潺 Chan Liu
      金珈 Jia Jin
      杨冬麒 Dongqi Yang
      王蔷 Qiang Wang

◎简  介
    宋瑶(张予曦 饰)拥有一种奇幻体质,只要一部分特定人群与她对视一眼,便会无法自拔的爱上她。不过,再厉害的体质也有遭遇滑铁卢的那一天:宋瑶的这一双神奇电眼,在承天集团太子爷“季承川”身上居然失效了。但宋瑶不知,这完全是因为眼前的太子爷压根就是个冒牌货——骗子男秦皓(王子奇 饰)。就这样,两个各怀心思的戏精相遇,注定要展开一场史密斯夫妇般的争斗。鉴渣女撞上骗子男,究竟谁能魔高一丈。而宋瑶身世的背后,又埋藏着哪些秘密?

##### MediaInfo ######
General
Unique ID : 194758417058490035918700274061500627628 (0x92851B52E1FBD27F4774BAC523A23AAC)
Complete name : Guess.Who.I.Am.S01E19.2024.2160p.HQ.WEB-DL.H265.AAC-BlackTV.mkv
Duration : 34 min 4 s
Overall bit rate : 20.2 Mb/s

Video
ID : 1
Format : HEVC
Format/Info : High Efficiency Video Coding
Format profile : Main [email protected]@Main
Codec ID : V_MPEGH/ISO/HEVC
Duration : 34 min 4 s
Bit rate : 19.9 Mb/s
Width : 3 840 pixels
Height : 1 632 pixels
Display aspect ratio : 2.35:1
Frame rate mode : Constant
Frame rate : 25.000 FPS
Color space : YUV
Chroma subsampling : 4:2:0
Bit depth : 10 bits
Bits/(Pixel*Frame) : 0.127
Stream size : 4.74 GiB (99%)
Language : Chinese
Default : Yes
Forced : No
Color range : Limited
Color primaries : BT.709
Transfer characteristics : BT.709
Matrix coefficients : BT.709
VENDOR_ID : [0][0][0][0]

Audio
ID : 2
Format : AAC LC
Format/Info : Advanced Audio Codec Low Complexity
Codec ID : A_AAC-2
Duration : 34 min 4 s
Bit rate : 256 kb/s
Channel(s) : 2 channels
Channel layout : L R
Sampling rate : 44.1 kHz
Frame rate : 43.066 FPS (1024 SPF)
Compression mode : Lossy
Stream size : 62.4 MiB (1%)
Title : Mandarin [AAC2.0]
Language : Chinese
Default : No
Forced : No
VENDOR_ID : [0][0][0][0]

Menu
00:07:35.464 : zh:为确认袖扣所属者 宋瑶向妈妈询问往事
00:17:38.237 : zh:宋瑶秦皓阁楼探秘 终于确认纵火者
00:25:48.066 : zh:季鸿霖探望宋瑶妈妈 意外被电话打断


点击图片可查看大图

软字幕无法在截图上展现,HDR版本/杜比视界版本截图会出现颜色异常,请使用支持的设备播放!

部分资源为软字幕,移动端推荐播放器:MxPlayer,nPlayer,infuse ,其他播放器请自行尝试。

部分资源为软字幕,电脑端推荐播放器:PotPlayer,完美解码,KMPLAYER,其他播放器请自行尝试。

下载端推荐纯BT下载软件:qBittorrent,Bitcomet,uTorrent ,其他下载软件请自行尝试。不支持吸血迅雷。

上传的附件:
最新回复 (0)