2021 大陆 动画 WEB-1080P 神医九小姐[第79集][国语配音/中文字幕].Great.Doctor.Miss.Nine.S01.2021.1080p.WEB-DL.H264.AAC-LelveTV 0.24GB

RAY20920M 2024-04-03 18:19 321


完整标题:神医九小姐[第79集][国语配音/中文字幕].Great.Doctor.Miss.Nine.S01.2021.1080p.WEB-DL.H264.AAC-LelveTV 0.24GB




◎标  题 神医九小姐
◎译  名 Great Doctor Miss Nine
◎年  代 2021
◎产  地 中国大陆
◎类  别 动画 / 奇幻 / 冒险
◎语  言 汉语普通话
◎IMDb链接 https://www.imdb.com/title//
◎豆瓣链接 https://movie.douban.com/subject/35622991/
◎演  员 赵爽 Shuang Zhao
      刘三木 Sanmu Liu
      蔡娜 Na Cai
      关帅 Shuai Guan
      王薇 Wei Wang
      魏一凡 Yiffan Wei

◎简  介
    改编自豆喵喵小说《邪帝缠宠:神医九小姐》,动画讲述了现代美艳神医圣手君九在一次丹药拍卖中意外坠亡,穿越到了一个古代废材九小姐的身上。这个九小姐本是皇城两大世家之一的君家嫡女,因为父母双亡而被本家下放到风罗城的君家分家,且生前在风罗君家受尽屈辱,被逼而亡。君九继承了九小姐全部的记忆,发誓要一血前耻。无奈这位九小姐是个无法灵气入体的废柴,在这个崇尚武力的修仙世界里,穿越后的她先是通过自己惊世骇俗的医术为自己洗筋伐髓、提升修炼天赋,后又广结善缘、小心铺路。且看君九如何手刃仇人、血洗风罗分家,开始她一代天之娇女的传奇故事。   在复仇的过程中,君九阴差阳错认识了墨无越,而这个男人是君九心中独特的存在,他冷酷邪魅、强势霸道,天赋卓绝。君九的废柴身体世人皆知,只有墨无越慧眼识珠,在君九身后暗自保护,做她最强大的盾牌。并且君九还结识了云乔、谷松、君小蕾等好友,有了友情的加持,君九步步为营,渐渐掌管君家大权,斩乱臣贼子、奸佞小人。为了避免承受被太子退婚的奇耻大辱,她在皇城君家家主的寿宴上退婚太子,轰动一时。后来又去参加天纵国的最高修炼学院天纵院的弟子选拔,在选拔试炼中一战成名。   本片属于玄幻冒险类的大女主戏,一个个充满激情和热血的冒险故事,使得本片独具魅力。女主角君九凭借自己精湛的医术救死扶伤,在若肉强食的世界中努力修炼。她勇敢、聪慧、坚毅、狡猾,无论面对多么凶残的敌人都不会皱一下眉头。正所谓“穷且益坚,不坠青云之志”,她用自己的勇敢和努力创造了一个又一个修炼道路上的奇迹。她待人宽厚却不圣母,对待恶人绝不心慈手软,对待朋友也能只身赴险、两肋插刀。这不仅仅是一个关于重生的冒险的故事,与其他混乱而又充满杀戮的奇幻故事不同的是,它完全为了我们展现了一个有血有肉、充满善意的奇幻世界。

##### MediaInfo ######
General
Complete name : Great.Doctor.Miss.Nine.S01E79.2021.1080p.WEB-DL.H264.AAC-LelveTV.mp4
Duration : 10 min 22 s
Overall bit rate mode : Variable
Overall bit rate : 3 226 kb/s

Video
ID : 1
Format : AVC
Format/Info : Advanced Video Codec
Format profile : High@L4
Format settings : CABAC / 4 Ref Frames
Format settings, CABAC : Yes
Format settings, Reference frames : 4 frames
Codec ID : avc1
Codec ID/Info : Advanced Video Coding
Duration : 10 min 22 s
Source duration : 10 min 22 s
Bit rate : 3 127 kb/s
Width : 1 920 pixels
Height : 1 080 pixels
Display aspect ratio : 16:9
Frame rate mode : Variable
Frame rate : 25.000 FPS
Minimum frame rate : 24.993 FPS
Maximum frame rate : 25.007 FPS
Color space : YUV
Chroma subsampling : 4:2:0
Bit depth : 8 bits
Scan type : Progressive
Bits/(Pixel*Frame) : 0.060
Stream size : 232 MiB (97%)
Source stream size : 232 MiB (97%)
Color range : Limited
Color primaries : BT.709
Transfer characteristics : BT.709
Matrix coefficients : BT.709
Codec configuration box : avcC

Audio
ID : 2
Format : AAC LC
Format/Info : Advanced Audio Codec Low Complexity
Codec ID : mp4a-40-2
Duration : 10 min 22 s
Bit rate mode : Variable
Bit rate : 93.4 kb/s
Maximum bit rate : 97.1 kb/s
Channel(s) : 2 channels
Channel layout : L R
Sampling rate : 48.0 kHz
Frame rate : 46.875 FPS (1024 SPF)
Compression mode : Lossy
Stream size : 6.93 MiB (3%)
Default : Yes
Alternate group : 1


点击图片可查看大图

软字幕无法在截图上展现,HDR版本/杜比视界版本截图会出现颜色异常,请使用支持的设备播放!

部分资源为软字幕,移动端推荐播放器:MxPlayer,nPlayer,infuse ,其他播放器请自行尝试。

部分资源为软字幕,电脑端推荐播放器:PotPlayer,完美解码,KMPLAYER,其他播放器请自行尝试。

下载端推荐纯BT下载软件:qBittorrent,Bitcomet,uTorrent ,其他下载软件请自行尝试。不支持吸血迅雷。

上传的附件:
最新回复 (0)