2024 大陆 爱情 WEB-4K 离歌[第15-16集][国语配音/中文字幕].The.Farewell.Song.S01.2024.2160p.WEB-DL.H265.AAC-BlackTV 1.60GB

Katt2092T 2024-04-03 18:21 248


完整标题:离歌[第15-16集][国语配音/中文字幕].The.Farewell.Song.S01.2024.2160p.WEB-DL.H265.AAC-BlackTV 1.60GB




◎标  题 离歌
◎译  名 The Farewell Song
◎年  代 2024
◎产  地 中国大陆
◎类  别 爱情 / 悬疑
◎语  言 汉语普通话
◎IMDb链接 https://www.imdb.com/title/tt31957525/
◎豆瓣链接 https://movie.douban.com/subject/36125821/
◎导  演 文晔 Amelie Wen
◎编  剧 饶雪漫 Xueman Rao
◎演  员 李婷婷 TingtingLi
      周澄奥 Chengao Zhou
      米咪 Mi Mi
      崔雨鑫 Yuxin Cui
      邵兵 Bing Shao
      倪景阳 Jingyang Ni
      冯家妹 Jiamei Feng
      吴丹 Dan Wu
      李至强 Zhiqiang Li
      崔钟 Zhong Cui
      钟燕平 Yanping Zhong
      王二莽 Lei Wang

◎简  介
    马卓生于雨城雅安,八岁被母亲林果果接到成都一起生活,和夏钢的儿子夏泽相伴成长,青梅竹马的二人成为了彼此的初恋。林果果和夏钢意外卷入一桩离奇的凶案,马卓和夏泽从此情感错位,命运曲折,在危险和荆棘中追寻父辈的真相。

##### MediaInfo ######
General
Unique ID : 325516280371121304749714093667933680947 (0xF4E427B99057383B58673B44C41EF533)
Complete name : The.Farewell.Song.S01E15.2024.2160p.WEB-DL.H265.AAC-BlackTV.mkv
Duration : 34 min 27 s
Overall bit rate : 3 198 kb/s

Video
ID : 1
Format : HEVC
Format/Info : High Efficiency Video Coding
Format profile : Main@L5@Main
Codec ID : V_MPEGH/ISO/HEVC
Duration : 34 min 26 s
Bit rate : 3 006 kb/s
Width : 3 840 pixels
Height : 2 160 pixels
Display aspect ratio : 16:9
Frame rate mode : Constant
Frame rate : 25.000 FPS
Color space : YUV
Chroma subsampling : 4:2:0
Bit depth : 8 bits
Bits/(Pixel*Frame) : 0.014
Stream size : 741 MiB (94%)
Language : Chinese
Default : Yes
Forced : No
Color range : Limited

Audio
ID : 2
Format : AAC LC
Format/Info : Advanced Audio Codec Low Complexity
Codec ID : A_AAC-2
Duration : 34 min 27 s
Bit rate : 192 kb/s
Channel(s) : 2 channels
Channel layout : L R
Sampling rate : 44.1 kHz
Frame rate : 43.066 FPS (1024 SPF)
Compression mode : Lossy
Stream size : 46.8 MiB (6%)
Title : Mandarin [AAC2.0]
Language : Chinese
Default : No
Forced : No


点击图片可查看大图

软字幕无法在截图上展现,HDR版本/杜比视界版本截图会出现颜色异常,请使用支持的设备播放!

部分资源为软字幕,移动端推荐播放器:MxPlayer,nPlayer,infuse ,其他播放器请自行尝试。

部分资源为软字幕,电脑端推荐播放器:PotPlayer,完美解码,KMPLAYER,其他播放器请自行尝试。

下载端推荐纯BT下载软件:qBittorrent,Bitcomet,uTorrent ,其他下载软件请自行尝试。不支持吸血迅雷。

上传的附件:
最新回复 (0)