2020 大陆 动画 WEB-1080P 绝世武魂[第363集][国语配音/中文字幕].A.Paragon.of.Wu.Hun.S01.2020.1080p.WEB-DL.H265.AAC-ZeroTV 0.14GB

Katt2092T 2024-04-03 18:26 177


完整标题:绝世武魂[第363集][国语配音/中文字幕].A.Paragon.of.Wu.Hun.S01.2020.1080p.WEB-DL.H265.AAC-ZeroTV 0.14GB




◎标  题 绝世武魂
◎译  名 Peerless Martial Spirit / A Paragon of Wu hun
◎年  代 2020
◎产  地 中国大陆
◎类  别 动画
◎语  言 汉语普通话
◎IMDb评分 8.2/10 (38人评价)
◎IMDb链接 https://www.imdb.com/title/tt20527766/
◎豆瓣链接 https://movie.douban.com/subject/35235575/
◎导  演 孙纪剑 Jijian Sun
◎编  剧 蔡子健 Ellesmere Choi Chi-kin
◎演  员 晓寒
      晓寒 Xiaohan

◎简  介
    少年陈枫,丹田如铁,无法修炼。唯有恩师不弃,不想师父被强者击杀,自此再也无人庇佑,受尽旁人欺凌。陈枫尽心守墓五年,却发现师父假死,发现师父遗留的至尊龙血,神秘古鼎。陈枫从此逆天崛起,踏上寻找师父,成为强者的道路。

##### MediaInfo ######
General
Complete name : 绝世武魂.A.Paragon.of.Wu.Hun.S01E363.2020.1080p.WEB-DL.H265.AAC-ZeroTV.mp4
Duration : 11 min 6 s
Overall bit rate mode : Variable
Overall bit rate : 1 854 kb/s

Video
ID : 1
Format : HEVC
Format/Info : High Efficiency Video Coding
Format profile : Main@L4@Main
Codec ID : hev1
Codec ID/Info : High Efficiency Video Coding
Duration : 11 min 6 s
Source duration : 11 min 6 s
Bit rate : 1 754 kb/s
Width : 1 920 pixels
Height : 1 080 pixels
Display aspect ratio : 16:9
Frame rate mode : Variable
Frame rate : 25.000 FPS
Minimum frame rate : 24.993 FPS
Maximum frame rate : 25.007 FPS
Color space : YUV
Chroma subsampling : 4:2:0
Bit depth : 8 bits
Bits/(Pixel*Frame) : 0.034
Stream size : 139 MiB (95%)
Source stream size : 139 MiB (95%)
Codec configuration box : hvcC

Audio
ID : 2
Format : AAC LC
Format/Info : Advanced Audio Codec Low Complexity
Codec ID : mp4a-40-2
Duration : 11 min 6 s
Bit rate mode : Variable
Bit rate : 93.4 kb/s
Maximum bit rate : 97.1 kb/s
Channel(s) : 2 channels
Channel layout : L R
Sampling rate : 48.0 kHz
Frame rate : 46.875 FPS (1024 SPF)
Compression mode : Lossy
Stream size : 7.41 MiB (5%)
Default : Yes
Alternate group : 1


点击图片可查看大图

软字幕无法在截图上展现,HDR版本/杜比视界版本截图会出现颜色异常,请使用支持的设备播放!

部分资源为软字幕,移动端推荐播放器:MxPlayer,nPlayer,infuse ,其他播放器请自行尝试。

部分资源为软字幕,电脑端推荐播放器:PotPlayer,完美解码,KMPLAYER,其他播放器请自行尝试。

下载端推荐纯BT下载软件:qBittorrent,Bitcomet,uTorrent ,其他下载软件请自行尝试。不支持吸血迅雷。

上传的附件:
最新回复 (0)