2024 大陆 剧情 WEB-1080P 花间令[第29集][国语配音/中文字幕].In.Blossom.S01.2024.1080p.WEB-DL.H264.AAC-BlackTV 0.24GB

MAY20919R 2024-04-03 18:32 276


完整标题:花间令[第29集][国语配音/中文字幕].In.Blossom.S01.2024.1080p.WEB-DL.H264.AAC-BlackTV 0.24GB




◎标  题 花间令
◎译  名 In Blossom
◎年  代 2024
◎产  地 中国大陆
◎类  别 剧情 / 爱情 / 悬疑 / 古装
◎语  言 汉语普通话
◎IMDb链接 https://www.imdb.com/title/tt29266659/
◎豆瓣链接 https://movie.douban.com/subject/36312062/
◎导  演 钟青 Qing Zhong
◎编  剧 于海林 Hailin Yu
      钟静 Jing Zhong
◎演  员 鞠婧祎 Jingyi Ju
      刘学义 Xueyi Liu
      吴佳怡 Jiayi Wu
      李歌洋 Geyang Lee
      郑合惠子 Hehuizi Zheng
      张睿 Rui Zhang
      黑子 Zi Hei
      徐百慧 Baihui Xu
      赵龙豪 Longhao Zhao
      丁洁 Jie Ding
      刘津言 Jinyan Liu
      漆培鑫 Peixin Qi
      石昊正 Haozheng Shi
      萧松原 Songyuan Xiao
      钟卫华 Weihua Zhong
      白威 Wei Bai
      谭琍敏 Limin Tan
      于春 Chun Yu
      俞庆 Qing Yu
      易勇名 Yongming Yi

◎简  介
    禾阳罪恶之城,掷果盈车的潘樾迎娶人人厌弃的杨采薇(鞠婧祎 饰),大婚当日,杨采薇被杀,疑凶竟是潘樾(刘学义 饰)。“死而复生”的杨采薇假借“恶女”上官芷的身份“凶悍”归来,势要揭露潘樾的真面目。在勇斗恶势力“四大宗族”,查明桩桩旧案的过程中,两颗心再次靠近,杨采薇发现杀害自己的真凶另有其人,潘樾自始至终都深爱着她。一切即将圆满,幕后之人却再次设局,要将二人推向万劫不复。

##### MediaInfo ######
General
Unique ID : 51316063069090813448424345051704091040 (0x269B1D3F70E45724180A647F582461A0)
Complete name : In.Blossom.S01E29.2024.1080p.WEB-DL.H264.AAC-BlackTV.mkv
Duration : 41 min 12 s
Overall bit rate : 843 kb/s

Video
ID : 1
Format : AVC
Format/Info : Advanced Video Codec
Format profile : High@L5
Format settings : CABAC / 5 Ref Frames
Format settings, CABAC : Yes
Format settings, Reference frames : 5 frames
Codec ID : V_MPEG4/ISO/AVC
Duration : 41 min 12 s
Bit rate : 745 kb/s
Width : 1 920 pixels
Height : 816 pixels
Display aspect ratio : 2.35:1
Frame rate mode : Constant
Frame rate : 25.000 FPS
Color space : YUV
Chroma subsampling : 4:2:0
Bit depth : 8 bits
Scan type : Progressive
Bits/(Pixel*Frame) : 0.019
Stream size : 220 MiB (88%)
Language : Chinese
Default : Yes
Forced : No
Color range : Limited
Color primaries : BT.709
Transfer characteristics : BT.709
Matrix coefficients : BT.709
VENDOR_ID : [0][0][0][0]

Audio
ID : 2
Format : AAC LC
Format/Info : Advanced Audio Codec Low Complexity
Codec ID : A_AAC-2
Duration : 41 min 12 s
Bit rate : 96.0 kb/s
Channel(s) : 2 channels
Channel layout : L R
Sampling rate : 44.1 kHz
Frame rate : 43.066 FPS (1024 SPF)
Compression mode : Lossy
Stream size : 28.3 MiB (11%)
Title : Mandarin [AAC2.0]
Language : Chinese
Default : No
Forced : No
VENDOR_ID : [0][0][0][0]

Menu
00:02:38.384 : zh:杨采薇贴心熬制参汤 阿泽汇报情况
00:09:53.256 : zh:潘樾天牢见卢将军 父亲关心潘樾伤势
00:18:35.970 : zh:贾太尉威胁郡主 提要求换姐姐性命
00:24:52.589 : zh:采薇着急寻郡主 疑似步入太尉圈套


点击图片可查看大图

软字幕无法在截图上展现,HDR版本/杜比视界版本截图会出现颜色异常,请使用支持的设备播放!

部分资源为软字幕,移动端推荐播放器:MxPlayer,nPlayer,infuse ,其他播放器请自行尝试。

部分资源为软字幕,电脑端推荐播放器:PotPlayer,完美解码,KMPLAYER,其他播放器请自行尝试。

下载端推荐纯BT下载软件:qBittorrent,Bitcomet,uTorrent ,其他下载软件请自行尝试。不支持吸血迅雷。

上传的附件:
最新回复 (0)