2024 大陆 剧情 WEB-1080P 象牙山的好人们[第29-30集][国语配音/中文字幕].Xiang.Ya.Shan.De.Hao.Ren.Men.S01.2024.1080p.WEB-DL.H264.AAC-LelveTV 0.35GB

RAY20920M 2024-04-03 18:38 246


完整标题:象牙山的好人们[第29-30集][国语配音/中文字幕].Xiang.Ya.Shan.De.Hao.Ren.Men.S01.2024.1080p.WEB-DL.H264.AAC-LelveTV 0.35GB




◎标  题 象牙山的好人们
◎译  名 乡村爱情番外篇
◎年  代 2024
◎产  地 中国大陆
◎类  别 剧情 / 喜剧
◎语  言 汉语普通话
◎IMDb链接 https://www.imdb.com/title//
◎豆瓣链接 https://movie.douban.com/subject/36812882/
◎导  演 孟令宇 Lingyu Meng
◎演  员 赵本山 Benshan Zhao
      王小利 Xiaoli Wang
      唐鉴军 Jianjun Tang
      刘小光 Xiaoguang Liu
      田娃 Wa Tian
      王德顺 Deshun Wang

◎简  介
    退伍老兵因在战争中救大拿的父亲而受伤,大脑里面残留弹片导致他经常间歇性失忆。大拿为了报恩让儿子接这位老兵回来养老,由于木生的疏忽导致老人走失。象牙山村民全体出动终于找回老人,村里为了表扬大家这种乐于助人、互相帮扶的美德成立了象牙山帮办团并给所有人授予“象牙山的好人”称号。老人记忆错乱回到战争年代,村民们一起陪他演戏帮他找回记忆,还找到了他失联多年的战友,使老人完成心愿。大家在这过程中感同身受的体验了从参军入伍到抗美援朝的整个军旅生涯,每个人都如同当了一回兵得到了不同的成长。同时也使大家认识到没有革命先辈们的浴血奋战就没有今天的和平时代,让我们学会珍惜今天来之不易的幸福生活,学会感恩。

##### MediaInfo ######
General
Complete name : Xiang.Ya.Shan.De.Hao.Ren.Men.S01E29.2024.1080p.WEB-DL.H264.AAC-LelveTV.mp4
Duration : 24 min 3 s
Overall bit rate mode : Variable
Overall bit rate : 1 147 kb/s

Video
ID : 1
Format : AVC
Format/Info : Advanced Video Codec
Format profile : High@L5
Format settings : CABAC / 5 Ref Frames
Format settings, CABAC : Yes
Format settings, Reference frames : 5 frames
Codec ID : avc1
Codec ID/Info : Advanced Video Coding
Duration : 24 min 3 s
Bit rate : 1 044 kb/s
Width : 1 920 pixels
Height : 824 pixels
Display aspect ratio : 2.35:1
Frame rate mode : Constant
Frame rate : 25.000 FPS
Color space : YUV
Chroma subsampling : 4:2:0
Bit depth : 8 bits
Scan type : Progressive
Bits/(Pixel*Frame) : 0.026
Stream size : 180 MiB (91%)
Color range : Limited
Color primaries : BT.709
Transfer characteristics : BT.709
Matrix coefficients : BT.709
Codec configuration box : avcC

Audio
ID : 2
Format : AAC LC
Format/Info : Advanced Audio Codec Low Complexity
Codec ID : mp4a-40-2
Duration : 24 min 3 s
Bit rate mode : Variable
Bit rate : 96.0 kb/s
Maximum bit rate : 99.4 kb/s
Channel(s) : 2 channels
Channel layout : L R
Sampling rate : 44.1 kHz
Frame rate : 43.066 FPS (1024 SPF)
Compression mode : Lossy
Stream size : 16.5 MiB (8%)
Default : Yes
Alternate group : 1


点击图片可查看大图

软字幕无法在截图上展现,HDR版本/杜比视界版本截图会出现颜色异常,请使用支持的设备播放!

部分资源为软字幕,移动端推荐播放器:MxPlayer,nPlayer,infuse ,其他播放器请自行尝试。

部分资源为软字幕,电脑端推荐播放器:PotPlayer,完美解码,KMPLAYER,其他播放器请自行尝试。

下载端推荐纯BT下载软件:qBittorrent,Bitcomet,uTorrent ,其他下载软件请自行尝试。不支持吸血迅雷。

上传的附件:
最新回复 (0)