2023 大陆 动画 WEB-4K 遮天[第51集][国语配音/中文字幕].Shrouding.the.Heavens.S01.2023.2160p.WEB-DL.H265.AAC-LelveTV 1.28GB

Katt2092T 2024-04-03 18:40 5025


完整标题:遮天[第51集][国语配音/中文字幕].Shrouding.the.Heavens.S01.2023.2160p.WEB-DL.H265.AAC-LelveTV 1.28GB




◎标  题 遮天
◎译  名 遮天 动画版 / Shrouding the Heavens
◎年  代 2023
◎产  地 中国大陆
◎类  别 动画 / 奇幻 / 冒险
◎语  言 汉语普通话
◎IMDb评分 7.9/10 (29人评价)
◎IMDb链接 https://www.imdb.com/title/tt27617390/
◎豆瓣评分 5.9/10 (7185人评价)
◎豆瓣链接 https://movie.douban.com/subject/35639782/
◎导  演 赵侠 Zhao Xia
◎编  剧 范圣怡 Shengyi Fan
      丁鹂 Li Ding
      徐俊 Jun Xu
      胡纯鸿
◎演  员 徐翔 Xiang Xu
      赵乾景 Qianjing Zhao
      吴磊 Lei Wu
      张若瑜 Zhang Ruoyu
      张欣 Xin Zhang
      王肖兵 Xiaobing Wang
      韩娇娇 Jiaojiao Han
      李蝉妃 Chanfei Li
      王文强 Wenqiang Wang

##### MediaInfo ######
General
Complete name : Shrouding.the.Heavens.S01E51.2023.2160p.WEB-DL.H265.AAC-LelveTV.mp4
Duration : 21 min 48 s
Overall bit rate mode : Variable
Overall bit rate : 8 403 kb/s

Video
ID : 1
Format : HEVC
Format/Info : High Efficiency Video Coding
Format profile : Main@L5@Main
Codec ID : hev1
Codec ID/Info : High Efficiency Video Coding
Duration : 21 min 48 s
Source duration : 21 min 48 s
Bit rate : 8 271 kb/s
Width : 3 840 pixels
Height : 2 160 pixels
Display aspect ratio : 16:9
Frame rate mode : Variable
Frame rate : 25.000 FPS
Minimum frame rate : 24.993 FPS
Maximum frame rate : 25.007 FPS
Color space : YUV
Chroma subsampling : 4:2:0
Bit depth : 8 bits
Bits/(Pixel*Frame) : 0.040
Stream size : 1.26 GiB (98%)
Source stream size : 1.26 GiB (98%)
Writing library : Tencent-V265-1.6.9.1-p1k184g16lh64f4ra1.
Color range : Limited
Color primaries : BT.709
Transfer characteristics : BT.709
Matrix coefficients : BT.709
Codec configuration box : hvcC

Audio
ID : 2
Format : AAC LC
Format/Info : Advanced Audio Codec Low Complexity
Codec ID : mp4a-40-2
Duration : 21 min 48 s
Bit rate mode : Variable
Bit rate : 125 kb/s
Maximum bit rate : 129 kb/s
Channel(s) : 2 channels
Channel layout : L R
Sampling rate : 48.0 kHz
Frame rate : 46.875 FPS (1024 SPF)
Compression mode : Lossy
Stream size : 19.6 MiB (1%)
Default : Yes
Alternate group : 1


点击图片可查看大图

软字幕无法在截图上展现,HDR版本/杜比视界版本截图会出现颜色异常,请使用支持的设备播放!

部分资源为软字幕,移动端推荐播放器:MxPlayer,nPlayer,infuse ,其他播放器请自行尝试。

部分资源为软字幕,电脑端推荐播放器:PotPlayer,完美解码,KMPLAYER,其他播放器请自行尝试。

下载端推荐纯BT下载软件:qBittorrent,Bitcomet,uTorrent ,其他下载软件请自行尝试。不支持吸血迅雷。

上传的附件:
最新回复 (0)