2023 大陆 动画 WEB-4K 遮天[第51集][国语配音/中文字幕].Shrouding.the.Heavens.S01.2023.2160p.WEB-DL.H265.DDP2.0-ZeroTV 1.32GB

RAY20920M 2024-04-03 18:41 5473


完整标题:遮天[第51集][国语配音/中文字幕].Shrouding.the.Heavens.S01.2023.2160p.WEB-DL.H265.DDP2.0-ZeroTV 1.32GB




◎标  题 遮天
◎译  名 遮天 动画版 / Shrouding the Heavens
◎年  代 2023
◎产  地 中国大陆
◎类  别 动画 / 奇幻 / 冒险
◎语  言 汉语普通话
◎IMDb评分 7.9/10 (29人评价)
◎IMDb链接 https://www.imdb.com/title/tt27617390/
◎豆瓣评分 5.9/10 (7185人评价)
◎豆瓣链接 https://movie.douban.com/subject/35639782/
◎导  演 赵侠 Zhao Xia
◎编  剧 范圣怡 Shengyi Fan
      丁鹂 Li Ding
      徐俊 Jun Xu
      胡纯鸿
◎演  员 徐翔 Xiang Xu
      赵乾景 Qianjing Zhao
      吴磊 Lei Wu
      张若瑜 Zhang Ruoyu
      张欣 Xin Zhang
      王肖兵 Xiaobing Wang
      韩娇娇 Jiaojiao Han
      李蝉妃 Chanfei Li
      王文强 Wenqiang Wang

##### MediaInfo ######
General
Unique ID : 168152654366548949093569479743319019512 (0x7E8105F238FB80E5D517013519C38FF8)
Complete name : 遮天.Shrouding.the.Heavens.S01E51.2023.2160p.WEB-DL.H265.DDP2.0-ZeroTV.mkv
Duration : 21 min 48 s
Overall bit rate : 8 654 kb/s

Video
ID : 1
Format : HEVC
Format/Info : High Efficiency Video Coding
Format profile : Main@L5@Main
Codec ID : V_MPEGH/ISO/HEVC
Duration : 21 min 48 s
Bit rate : 8 271 kb/s
Width : 3 840 pixels
Height : 2 160 pixels
Display aspect ratio : 16:9
Frame rate mode : Constant
Frame rate : 25.000 FPS
Color space : YUV
Chroma subsampling : 4:2:0
Bit depth : 8 bits
Bits/(Pixel*Frame) : 0.040
Stream size : 1.26 GiB (96%)
Writing library : Tencent-V265-1.6.9.1-p1k184g16lh64f4ra1.
Default : Yes
Forced : No
Color range : Limited
Color primaries : BT.709
Transfer characteristics : BT.709
Matrix coefficients : BT.709

Audio #1
ID : 2
Format : E-AC-3
Format/Info : Enhanced AC-3
Commercial name : Dolby Digital Plus
Codec ID : A_EAC3
Duration : 21 min 48 s
Bit rate mode : Constant
Bit rate : 256 kb/s
Channel(s) : 2 channels
Channel layout : L R
Sampling rate : 48.0 kHz
Frame rate : 31.250 FPS (1536 SPF)
Compression mode : Lossy
Delay relative to video : -42 ms
Stream size : 39.9 MiB (3%)
Title : Mandarin
Language : Chinese
Service kind : Complete Main
Default : Yes
Forced : No

Audio #2
ID : 3
Format : AAC LC
Format/Info : Advanced Audio Codec Low Complexity
Codec ID : A_AAC-2
Duration : 21 min 48 s
Bit rate : 125 kb/s
Channel(s) : 2 channels
Channel layout : L R
Sampling rate : 48.0 kHz
Frame rate : 46.875 FPS (1024 SPF)
Compression mode : Lossy
Delay relative to video : -42 ms
Stream size : 19.6 MiB (1%)
Title : Mandarin
Language : Chinese
Default : No
Forced : No


点击图片可查看大图

软字幕无法在截图上展现,HDR版本/杜比视界版本截图会出现颜色异常,请使用支持的设备播放!

部分资源为软字幕,移动端推荐播放器:MxPlayer,nPlayer,infuse ,其他播放器请自行尝试。

部分资源为软字幕,电脑端推荐播放器:PotPlayer,完美解码,KMPLAYER,其他播放器请自行尝试。

下载端推荐纯BT下载软件:qBittorrent,Bitcomet,uTorrent ,其他下载软件请自行尝试。不支持吸血迅雷。

上传的附件:
最新回复 (1)
  • Sean2023 14天前
    0 2
    感謝樓主無私地分享~~!!