2024 大陆 动画 WEB-1080P 隐世宗门掌教[第07集][国语配音/中文字幕].Yin.Shi.Zong.Men.Zhang.Jiao.S01.2024.1080p.WEB-DL.H264.AAC-ZeroTV 0.22GB

RAY20920M 2024-04-03 18:42 320


完整标题:隐世宗门掌教[第07集][国语配音/中文字幕].Yin.Shi.Zong.Men.Zhang.Jiao.S01.2024.1080p.WEB-DL.H264.AAC-ZeroTV 0.22GB




◎标  题 隐世宗门掌教
◎译  名 隐世宗门掌教之一鸣惊人
◎年  代 2024
◎产  地 中国大陆
◎类  别 动画
◎语  言 汉语普通话
◎IMDb链接 https://www.imdb.com/title//
◎豆瓣链接 https://movie.douban.com/subject/36744118/
◎导  演 秦鹤阳 Heyang Qin
◎演  员 李丰道 Fengdao Li
      苏倩云 Qianyun Su
      张艺雯 Yiwen Zhang
      崔志昂
      丁莹莹 Yingying Ding

◎简  介
    江北辰穿越到玄幻世界,偶然得到最强掌教系统,成立“仙道门”。宗门初期,他只得靠拐骗气运之子来升级宗门。每天都要装高人风范,唬骗一众仰慕自己的天骄弟子。慢慢的,江北辰发现,自己的小宗门,还真成为了最顶尖的隐世宗门!

##### MediaInfo ######
General
Complete name : 隐世宗门掌教.Yin.Shi.Zong.Men.Zhang.Jiao.S01E07.2024.1080p.WEB-DL.H264.AAC-ZeroTV.mp4
Duration : 11 min 30 s
Overall bit rate : 2 774 kb/s

Video
ID : 1
Format : AVC
Format/Info : Advanced Video Codec
Format profile : High@L4
Format settings : CABAC / 3 Ref Frames
Format settings, CABAC : Yes
Format settings, Reference frames : 3 frames
Codec ID : avc1
Codec ID/Info : Advanced Video Coding
Duration : 11 min 30 s
Bit rate : 2 578 kb/s
Width : 1 920 pixels
Height : 1 080 pixels
Display aspect ratio : 16:9
Frame rate mode : Constant
Frame rate : 25.000 FPS
Color space : YUV
Chroma subsampling : 4:2:0
Bit depth : 8 bits
Scan type : Progressive
Bits/(Pixel*Frame) : 0.050
Stream size : 212 MiB (93%)
Color range : Limited
Color primaries : BT.709
Transfer characteristics : BT.709
Matrix coefficients : BT.709
Codec configuration box : avcC

Audio
ID : 2
Format : AAC LC
Format/Info : Advanced Audio Codec Low Complexity
Codec ID : mp4a-40-2
Duration : 11 min 30 s
Bit rate mode : Constant
Bit rate : 192 kb/s
Channel(s) : 2 channels
Channel layout : L R
Sampling rate : 44.1 kHz
Frame rate : 43.066 FPS (1024 SPF)
Compression mode : Lossy
Stream size : 15.6 MiB (7%)
Default : Yes
Alternate group : 1


点击图片可查看大图

软字幕无法在截图上展现,HDR版本/杜比视界版本截图会出现颜色异常,请使用支持的设备播放!

部分资源为软字幕,移动端推荐播放器:MxPlayer,nPlayer,infuse ,其他播放器请自行尝试。

部分资源为软字幕,电脑端推荐播放器:PotPlayer,完美解码,KMPLAYER,其他播放器请自行尝试。

下载端推荐纯BT下载软件:qBittorrent,Bitcomet,uTorrent ,其他下载软件请自行尝试。不支持吸血迅雷。

上传的附件:
最新回复 (0)