2024 美国 动作 WEB-4K X战警97 第一季[第04集][简繁英字幕].X-Men.97.S01.2024.2160p.DSNP.WEB-DL.H265.HDR.DDP5.1.Atmos-ZeroTV 2.60GB

RAY20920M 2024-04-03 19:34 1391


完整标题:X战警97 第一季[第04集][简繁英字幕].X-Men.97.S01.2024.2160p.DSNP.WEB-DL.H265.HDR.DDP5.1.Atmos-ZeroTV 2.60GB




◎标  题 X战警97 第一季
◎译  名 X战警 ’97(台) / X-Men 97
◎片  名 X-Men '97 Season 1
◎年  代 2024
◎产  地 美国
◎类  别 动作 / 科幻 / 动画 / 奇幻 / 冒险
◎语  言 英语
◎IMDb链接 https://www.imdb.com/title/tt16026746/
◎豆瓣链接 https://movie.douban.com/subject/35659891/
◎导  演 杰克·卡斯托雷纳 Jake Castorena
      蔡斯·康利 Chase Conley
      埃米·米村 Emi Yonemura
◎编  剧 博·德马约 Beau DeMayo
◎演  员 雷·蔡斯 Ray Chase
      詹妮弗·黑尔 Jennifer Hale
      艾莉森·西莉-史密斯 Alison Sealy-Smith
      卡尔·J·杜德 Cal Dodd
      JP·卡利亚赫 JP Karliak
      伦诺·赞恩 Lenore Zann
      乔治·布扎 George Buza
      AJ·罗卡西奥 A.J. LoCascio
      霍莉·周 Holly Chou
      艾萨克·罗宾逊-史密斯 Isaac Robinson-Smith
      马修·沃特森 Matthew Waterson
      阿德里安·霍夫 Adrian Hough
      克里斯·波特 Chris Potter
      凯瑟琳·迪舍 Catherine Disher
      Anniwaa Buachie
      克里斯·布里顿 Chris Britton
      桂·阿古斯蒂尼 Gui Agustini

◎简  介
    该剧是90年代X战警系列动画续集,万磁王领导X战警。   在充满着仇恨和偏见的人类主宰的世界里,熟悉的X战警成员接连回归,全新角色即将加盟。

##### MediaInfo ######
General
Unique ID : 294277096604778007458074461571940876154 (0xDD63B50D03EAC5D89DE5E822F23BFF7A)
Complete name : X-Men.97.S01E04.2024.2160p.DSNP.WEB-DL.H265.HDR.DDP5.1.Atmos-ZeroTV.mkv
Duration : 27 min 33 s
Overall bit rate : 13.5 Mb/s

Video
ID : 1
Format : HEVC
Format/Info : High Efficiency Video Coding
Format profile : Main 10@L5@High
HDR format : SMPTE ST 2086, HDR10 compatible
Codec ID : V_MPEGH/ISO/HEVC
Duration : 27 min 33 s
Bit rate : 12.7 Mb/s
Width : 3 840 pixels
Height : 2 160 pixels
Display aspect ratio : 16:9
Frame rate mode : Constant
Frame rate : 24.000 FPS
Color space : YUV
Chroma subsampling : 4:2:0
Bit depth : 10 bits
Bits/(Pixel*Frame) : 0.064
Stream size : 2.45 GiB (94%)
Default : Yes
Forced : No
Color range : Limited
Color primaries : BT.2020
Transfer characteristics : PQ
Matrix coefficients : BT.2020 non-constant
Mastering display color primaries : BT.2020
Mastering display luminance : min: 0.0000 cd/m2, max: 1000 cd/m2

Audio
ID : 2
Format : E-AC-3 JOC
Format/Info : Enhanced AC-3 with Joint Object Coding
Commercial name : Dolby Digital Plus with Dolby Atmos
Codec ID : A_EAC3
Duration : 27 min 33 s
Bit rate mode : Constant
Bit rate : 768 kb/s
Channel(s) : 6 channels
Channel layout : L R C LFE Ls Rs
Sampling rate : 48.0 kHz
Frame rate : 31.250 FPS (1536 SPF)
Compression mode : Lossy
Stream size : 151 MiB (6%)
Title : English [Original]
Language : English
Service kind : Complete Main
Default : Yes
Forced : No
Complexity index : 16
Number of dynamic objects : 15
Bed channel count : 1 channel
Bed channel configuration : LFE

Text #1
ID : 3
Format : UTF-8
Codec ID : S_TEXT/UTF8
Codec ID/Info : UTF-8 Plain Text
Duration : 27 min 26 s
Bit rate : 53 b/s
Frame rate : 0.264 FPS
Count of elements : 435
Stream size : 10.8 KiB (0%)
Title : Chinese Simplified
Language : Chinese
Default : Yes
Forced : No

Text #2
ID : 4
Format : UTF-8
Codec ID : S_TEXT/UTF8
Codec ID/Info : UTF-8 Plain Text
Duration : 25 min 34 s
Bit rate : 67 b/s
Frame rate : 0.288 FPS
Count of elements : 442
Stream size : 12.7 KiB (0%)
Title : English
Language : English
Default : No
Forced : No

Text #3
ID : 5
Format : UTF-8
Codec ID : S_TEXT/UTF8
Codec ID/Info : UTF-8 Plain Text
Duration : 27 min 26 s
Bit rate : 53 b/s
Frame rate : 0.264 FPS
Count of elements : 435
Stream size : 10.8 KiB (0%)
Title : Chinese Traditional
Language : Chinese
Default : Yes
Forced : No

Text #4
ID : 6
Format : UTF-8
Codec ID : S_TEXT/UTF8
Codec ID/Info : UTF-8 Plain Text
Duration : 27 min 26 s
Bit rate : 57 b/s
Frame rate : 0.254 FPS
Count of elements : 419
Stream size : 11.5 KiB (0%)
Title : Czech
Language : Czech
Default : No
Forced : No

Text #5
ID : 7
Format : UTF-8
Codec ID : S_TEXT/UTF8
Codec ID/Info : UTF-8 Plain Text
Duration : 27 min 26 s
Bit rate : 55 b/s
Frame rate : 0.148 FPS
Count of elements : 243
Stream size : 11.1 KiB (0%)
Title : Danish
Language : Danish
Default : No
Forced : No

Text #6
ID : 8
Format : UTF-8
Codec ID : S_TEXT/UTF8
Codec ID/Info : UTF-8 Plain Text
Duration : 27 min 26 s
Bit rate : 59 b/s
Frame rate : 0.202 FPS
Count of elements : 332
Stream size : 12.0 KiB (0%)
Title : Dutch
Language : Dutch
Default : No
Forced : No

Text #7
ID : 9
Format : UTF-8
Codec ID : S_TEXT/UTF8
Codec ID/Info : UTF-8 Plain Text
Duration : 27 min 20 s
Bit rate : 58 b/s
Frame rate : 0.238 FPS
Count of elements : 390
Stream size : 11.7 KiB (0%)
Title : French
Language : French
Default : No
Forced : No

Text #8
ID : 10
Format : UTF-8
Codec ID : S_TEXT/UTF8
Codec ID/Info : UTF-8 Plain Text
Duration : 27 min 26 s
Bit rate : 55 b/s
Frame rate : 0.256 FPS
Count of elements : 422
Stream size : 11.2 KiB (0%)
Title : Finnish
Language : Finnish
Default : No
Forced : No

Text #9
ID : 11
Format : UTF-8
Codec ID : S_TEXT/UTF8
Codec ID/Info : UTF-8 Plain Text
Duration : 27 min 26 s
Bit rate : 63 b/s
Frame rate : 0.245 FPS
Count of elements : 403
Stream size : 12.7 KiB (0%)
Title : German
Language : German
Default : No
Forced : No

Text #10
ID : 12
Format : UTF-8
Codec ID : S_TEXT/UTF8
Codec ID/Info : UTF-8 Plain Text
Duration : 27 min 26 s
Bit rate : 116 b/s
Frame rate : 0.261 FPS
Count of elements : 429
Stream size : 23.4 KiB (0%)
Title : Greek
Language : Greek
Default : No
Forced : No

Text #11
ID : 13
Format : UTF-8
Codec ID : S_TEXT/UTF8
Codec ID/Info : UTF-8 Plain Text
Duration : 27 min 26 s
Bit rate : 65 b/s
Frame rate : 0.261 FPS
Count of elements : 429
Stream size : 13.2 KiB (0%)
Title : Hungarian
Language : Hungarian
Default : No
Forced : No

Text #12
ID : 14
Format : UTF-8
Codec ID : S_TEXT/UTF8
Codec ID/Info : UTF-8 Plain Text
Duration : 27 min 26 s
Bit rate : 60 b/s
Frame rate : 0.211 FPS
Count of elements : 348
Stream size : 12.2 KiB (0%)
Title : Japanese
Language : Japanese
Default : No
Forced : No

Text #13
ID : 15
Format : UTF-8
Codec ID : S_TEXT/UTF8
Codec ID/Info : UTF-8 Plain Text
Duration : 27 min 26 s
Bit rate : 63 b/s
Frame rate : 0.256 FPS
Count of elements : 422
Stream size : 12.8 KiB (0%)
Title : Italian
Language : Italian
Default : No
Forced : No

Text #14
ID : 16
Format : UTF-8
Codec ID : S_TEXT/UTF8
Codec ID/Info : UTF-8 Plain Text
Duration : 27 min 26 s
Bit rate : 65 b/s
Frame rate : 0.264 FPS
Count of elements : 435
Stream size : 13.2 KiB (0%)
Title : Korean
Language : Korean
Default : No
Forced : No

Text #15
ID : 17
Format : UTF-8
Codec ID : S_TEXT/UTF8
Codec ID/Info : UTF-8 Plain Text
Duration : 27 min 26 s
Bit rate : 55 b/s
Frame rate : 0.254 FPS
Count of elements : 419
Stream size : 11.2 KiB (0%)
Title : Norwegian
Language : Norwegian
Default : No
Forced : No

Text #16
ID : 18
Format : UTF-8
Codec ID : S_TEXT/UTF8
Codec ID/Info : UTF-8 Plain Text
Duration : 27 min 26 s
Bit rate : 64 b/s
Frame rate : 0.251 FPS
Count of elements : 414
Stream size : 12.9 KiB (0%)
Title : Polish
Language : Polish
Default : No
Forced : No

Text #17
ID : 19
Format : UTF-8
Codec ID : S_TEXT/UTF8
Codec ID/Info : UTF-8 Plain Text
Duration : 27 min 26 s
Bit rate : 64 b/s
Frame rate : 0.257 FPS
Count of elements : 423
Stream size : 13.0 KiB (0%)
Title : Portuguese
Language : Portuguese
Default : No
Forced : No

Text #18
ID : 20
Format : UTF-8
Codec ID : S_TEXT/UTF8
Codec ID/Info : UTF-8 Plain Text
Duration : 27 min 26 s
Bit rate : 66 b/s
Frame rate : 0.259 FPS
Count of elements : 426
Stream size : 13.3 KiB (0%)
Title : Brazilian Portuguese
Language : Portuguese
Default : No
Forced : No

Text #19
ID : 21
Format : UTF-8
Codec ID : S_TEXT/UTF8
Codec ID/Info : UTF-8 Plain Text
Duration : 27 min 26 s
Bit rate : 63 b/s
Frame rate : 0.255 FPS
Count of elements : 420
Stream size : 12.7 KiB (0%)
Title : Romanian
Language : Romanian
Default : No
Forced : No

Text #20
ID : 22
Format : UTF-8
Codec ID : S_TEXT/UTF8
Codec ID/Info : UTF-8 Plain Text
Duration : 27 min 26 s
Bit rate : 58 b/s
Frame rate : 0.250 FPS
Count of elements : 412
Stream size : 11.7 KiB (0%)
Title : Slovak
Language : Slovak
Default : No
Forced : No

Text #21
ID : 23
Format : UTF-8
Codec ID : S_TEXT/UTF8
Codec ID/Info : UTF-8 Plain Text
Duration : 27 min 26 s
Bit rate : 63 b/s
Frame rate : 0.258 FPS
Count of elements : 424
Stream size : 12.7 KiB (0%)
Title : Spanish
Language : Spanish
Default : No
Forced : No

Text #22
ID : 24
Format : UTF-8
Codec ID : S_TEXT/UTF8
Codec ID/Info : UTF-8 Plain Text
Duration : 27 min 26 s
Bit rate : 52 b/s
Frame rate : 0.171 FPS
Count of elements : 282
Stream size : 10.5 KiB (0%)
Title : Swedish
Language : Swedish
Default : No
Forced : No


点击图片可查看大图

软字幕无法在截图上展现,HDR版本/杜比视界版本截图会出现颜色异常,请使用支持的设备播放!

部分资源为软字幕,移动端推荐播放器:MxPlayer,nPlayer,infuse ,其他播放器请自行尝试。

部分资源为软字幕,电脑端推荐播放器:PotPlayer,完美解码,KMPLAYER,其他播放器请自行尝试。

下载端推荐纯BT下载软件:qBittorrent,Bitcomet,uTorrent ,其他下载软件请自行尝试。不支持吸血迅雷。

上传的附件:
最新回复 (0)