2020 大陆 剧情 WEB-1080P 中国[全12集][国语配音/中文字幕].China.S01.2020.1080p.WEB-DL.H264.AAC-LelveTV 6.77GB

RAY20920M 2024-04-03 19:35 785


完整标题:中国[全12集][国语配音/中文字幕].China.S01.2020.1080p.WEB-DL.H264.AAC-LelveTV 6.77GB




◎标  题 中国
◎译  名 中国 第一季
◎年  代 2020
◎产  地 中国大陆
◎类  别 纪录片
◎语  言 汉语普通话
◎IMDb链接 https://www.imdb.com/title/tt19731156/
◎豆瓣评分 8.3/10 (11107人评价)
◎豆瓣链接 https://movie.douban.com/subject/35268248/
◎导  演 李东珅
◎编  剧 邓建永 Jianyong Deng
◎演  员 何炅 Jiong He
      汪涵 Han Wang
      于朦胧 Menglong Yu
      赖雨濛 Yumeng Lai
      周涛 Tao Zhou
      王凯琳 Kailin Wang
      戴毅 Yi Dai

◎简  介
    溯五千年,泱泱中华,何以《中国》?大型人文历史纪录片《中国》第一季将从春秋到盛唐的中国历史故事中,挖掘对今日中国影响深远的人和事,讲中国故事,传中国之声,展中华文明演进的伟大历程。

##### MediaInfo ######
General
Unique ID : 38653865444354747640564039962839103209 (0x1D1476B48E3BAB5FC237347DF10636E9)
Complete name : China.S01E01.2020.1080p.WEB-DL.H264.AAC-LelveTV.mkv
Duration : 53 min 45 s
Overall bit rate : 1 657 kb/s

Video
ID : 1
Format : AVC
Format/Info : Advanced Video Codec
Format profile : High@L4
Format settings : CABAC / 3 Ref Frames
Format settings, CABAC : Yes
Format settings, Reference frames : 3 frames
Codec ID : V_MPEG4/ISO/AVC
Duration : 53 min 45 s
Bit rate : 1 466 kb/s
Width : 1 920 pixels
Height : 1 080 pixels
Display aspect ratio : 16:9
Frame rate mode : Constant
Frame rate : 25.000 FPS
Color space : YUV
Chroma subsampling : 4:2:0
Bit depth : 8 bits
Scan type : Progressive
Bits/(Pixel*Frame) : 0.028
Stream size : 564 MiB (88%)
Language : Chinese
Default : Yes
Forced : No
Color range : Limited
Color primaries : BT.709
Transfer characteristics : BT.709
Matrix coefficients : BT.709

Audio
ID : 2
Format : AAC LC
Format/Info : Advanced Audio Codec Low Complexity
Codec ID : A_AAC-2
Duration : 53 min 45 s
Bit rate : 192 kb/s
Channel(s) : 2 channels
Channel layout : L R
Sampling rate : 44.1 kHz
Frame rate : 43.066 FPS (1024 SPF)
Compression mode : Lossy
Stream size : 73.0 MiB (11%)
Default : No
Forced : No


点击图片可查看大图

软字幕无法在截图上展现,HDR版本/杜比视界版本截图会出现颜色异常,请使用支持的设备播放!

部分资源为软字幕,移动端推荐播放器:MxPlayer,nPlayer,infuse ,其他播放器请自行尝试。

部分资源为软字幕,电脑端推荐播放器:PotPlayer,完美解码,KMPLAYER,其他播放器请自行尝试。

下载端推荐纯BT下载软件:qBittorrent,Bitcomet,uTorrent ,其他下载软件请自行尝试。不支持吸血迅雷。

上传的附件:
最新回复 (0)