2024 大陆 剧情 WEB-4K 象牙山的好人们[高码版][全30集][国语配音/中文字幕].2024.2160p.HQ.WEB-DL.H265.AAC-BlackTV 97.70GB

RAY20920M 2024-04-03 19:41 362


完整标题:象牙山的好人们[高码版][全30集][国语配音/中文字幕].2024.2160p.HQ.WEB-DL.H265.AAC-BlackTV 97.70GB




◎标  题 象牙山的好人们
◎译  名 乡村爱情番外篇
◎年  代 2024
◎产  地 中国大陆
◎类  别 剧情 / 喜剧
◎语  言 汉语普通话
◎IMDb链接 https://www.imdb.com/title//
◎豆瓣链接 https://movie.douban.com/subject/36812882/
◎导  演 孟令宇 Lingyu Meng
◎演  员 赵本山 Benshan Zhao
      王小利 Xiaoli Wang
      唐鉴军 Jianjun Tang
      刘小光 Xiaoguang Liu
      田娃 Wa Tian
      王德顺 Deshun Wang

◎简  介
    退伍老兵因在战争中救大拿的父亲而受伤,大脑里面残留弹片导致他经常间歇性失忆。大拿为了报恩让儿子接这位老兵回来养老,由于木生的疏忽导致老人走失。象牙山村民全体出动终于找回老人,村里为了表扬大家这种乐于助人、互相帮扶的美德成立了象牙山帮办团并给所有人授予“象牙山的好人”称号。老人记忆错乱回到战争年代,村民们一起陪他演戏帮他找回记忆,还找到了他失联多年的战友,使老人完成心愿。大家在这过程中感同身受的体验了从参军入伍到抗美援朝的整个军旅生涯,每个人都如同当了一回兵得到了不同的成长。同时也使大家认识到没有革命先辈们的浴血奋战就没有今天的和平时代,让我们学会珍惜今天来之不易的幸福生活,学会感恩。

##### MediaInfo ######
General
Unique ID : 108190104883936754865955236317457466200 (0x5164A80131F71DB2A8BDBE6FCEBEC358)
Complete name : Good.Folks.of.Xiangya.Mountain.S01E01.2024.2160p.HQ.WEB-DL.H265.AAC-BlackTV.mkv
Duration : 23 min 35 s
Overall bit rate : 20.2 Mb/s

Video
ID : 1
Format : HEVC
Format/Info : High Efficiency Video Coding
Format profile : Main [email protected]@Main
Codec ID : V_MPEGH/ISO/HEVC
Duration : 23 min 35 s
Bit rate : 20.0 Mb/s
Width : 3 840 pixels
Height : 1 640 pixels
Display aspect ratio : 2.35:1
Frame rate mode : Constant
Frame rate : 25.000 FPS
Color space : YUV
Chroma subsampling : 4:2:0
Bit depth : 10 bits
Bits/(Pixel*Frame) : 0.127
Stream size : 3.29 GiB (99%)
Language : Chinese
Default : Yes
Forced : No
Color range : Limited
Color primaries : BT.709
Transfer characteristics : BT.709
Matrix coefficients : BT.709
VENDOR_ID : [0][0][0][0]

Audio
ID : 2
Format : AAC LC
Format/Info : Advanced Audio Codec Low Complexity
Codec ID : A_AAC-2
Duration : 23 min 35 s
Bit rate : 256 kb/s
Channel(s) : 2 channels
Channel layout : L R
Sampling rate : 44.1 kHz
Frame rate : 43.066 FPS (1024 SPF)
Compression mode : Lossy
Stream size : 43.2 MiB (1%)
Title : Mandarin [AAC2.0]
Language : Chinese
Default : No
Forced : No
VENDOR_ID : [0][0][0][0]

Menu
00:04:44.048 : zh:王大拿提议接回朱爷爷 王木生主动请缨
00:11:05.075 : zh:木生带朱爷爷参观博物馆 朱爷爷意外走丢
00:17:28.272 : zh:杨晓燕求助杜小双 小双发动全村寻人


点击图片可查看大图

软字幕无法在截图上展现,HDR版本/杜比视界版本截图会出现颜色异常,请使用支持的设备播放!

部分资源为软字幕,移动端推荐播放器:MxPlayer,nPlayer,infuse ,其他播放器请自行尝试。

部分资源为软字幕,电脑端推荐播放器:PotPlayer,完美解码,KMPLAYER,其他播放器请自行尝试。

下载端推荐纯BT下载软件:qBittorrent,Bitcomet,uTorrent ,其他下载软件请自行尝试。不支持吸血迅雷。

上传的附件:
最新回复 (0)