2024 日本 喜剧 WEB-1080P 厨房的爱丽丝[全10集][中文字幕].Alice.in.Wonderful.Kitchen.S01.1080p.KKTV.WEB-DL.AAC2.0.H.264-BlackTV 10.23GB

Katt2092T 2024-04-04 03:38 484


完整标题:厨房的爱丽丝[全10集][中文字幕].Alice.in.Wonderful.Kitchen.S01.1080p.KKTV.WEB-DL.AAC2.0.H.264-BlackTV 10.23GB




◎标  题 厨房的爱丽丝
◎译  名 爱丽丝在厨房
◎片  名 厨房のありす
◎年  代 2024
◎产  地 日本
◎类  别 喜剧 / 悬疑
◎语  言 日语
◎IMDb链接 https://www.imdb.com/title//
◎豆瓣链接 https://movie.douban.com/subject/36650765/
◎导  演 佐久间纪佳 Noriyoshi Sakuma
      铃木勇马 Yûma Suzuki
◎编  剧 玉田真也 Tamada Shinya
◎演  员 门胁麦 Mugi Kadowaki
      永濑廉 Ren Nagase
      大森南朋 Nao Omori
      前田敦子 Atsuko Maeda
      木村多江 Tae Kimura
      北大路欣也 Kinya Kitaoji
      大东骏介 Shunsuke Daito
      萩原圣人 Masato Hagiwara
      皆川猿时 Sarutoki Minagawa
      大友花恋 Otomo Karen
      前原瑞树 Mizuki Maehara
      橘优辉

◎简  介
    本剧讲述的是大家开朗地互相扶持,用温暖的语言和米饭结下羁绊的故事,有生活艰辛的登场人物的暖心一面,也有解开与主人公爱丽丝的家庭和出生秘密相关的事件之谜的神秘一面,是一部既伤感又温暖的新时代温情悬疑电视剧。

##### MediaInfo ######
General
Unique ID : 181969161856004430785911571195464926380 (0x88E5FC5BE792C88DABC35B46EB8E44AC)
Complete name : Alice.in.Wonderful.Kitchen.S01E01.1080p.KKTV.WEB-DL.AAC2.0.H.264-BlackTV.mkv
Duration : 45 min 52 s
Overall bit rate : 3 197 kb/s

Video
ID : 1
Format : AVC
Format/Info : Advanced Video Codec
Format profile : [email protected]
Format settings : CABAC / 5 Ref Frames
Format settings, CABAC : Yes
Format settings, Reference frames : 5 frames
Codec ID : V_MPEG4/ISO/AVC
Duration : 45 min 52 s
Bit rate : 3 000 kb/s
Width : 1 920 pixels
Height : 1 080 pixels
Display aspect ratio : 16:9
Frame rate mode : Constant
Frame rate : 29.970 (30000/1001) FPS
Color space : YUV
Chroma subsampling : 4:2:0
Bit depth : 8 bits
Scan type : Progressive
Bits/(Pixel*Frame) : 0.048
Stream size : 985 MiB (94%)
Writing library : x264 core 142
Encoding settings : cabac=1 / ref=5 / deblock=1:0:0 / analyse=0x3:0x113 / me=umh / subme=9 / psy=1 / psy_rd=1.00:0.00 / mixed_ref=1 / me_range=32 / chroma_me=1 / trellis=1 / 8x8dct=1 / cqm=0 / deadzone=21,11 / fast_pskip=1 / chroma_qp_offset=-2 / threads=12 / lookahead_threads=1 / sliced_threads=0 / nr=0 / decimate=1 / interlaced=0 / bluray_compat=0 / stitchable=1 / constrained_intra=0 / bframes=3 / b_pyramid=2 / b_adapt=1 / b_bias=0 / direct=3 / weightb=1 / open_gop=0 / weightp=2 / keyint=30 / keyint_min=3 / scenecut=0 / intra_refresh=0 / rc_lookahead=40 / rc=abr / mbtree=1 / bitrate=3000 / ratetol=1.0 / qcomp=0.60 / qpmin=0 / qpmax=69 / qpstep=4 / vbv_maxrate=4500 / vbv_bufsize=6750 / nal_hrd=none / filler=0 / ip_ratio=1.40 / aq=1:1.00
Language : English
Default : Yes
Forced : No

Audio
ID : 2
Format : AAC LC
Format/Info : Advanced Audio Codec Low Complexity
Codec ID : A_AAC-2
Duration : 45 min 52 s
Bit rate : 192 kb/s
Channel(s) : 2 channels
Channel layout : L R
Sampling rate : 44.1 kHz
Frame rate : 43.066 FPS (1024 SPF)
Compression mode : Lossy
Stream size : 63.0 MiB (6%)
Language : English
Default : Yes
Forced : No

Text #1
ID : 3
Format : UTF-8
Codec ID : S_TEXT/UTF8
Codec ID/Info : UTF-8 Plain Text
Duration : 44 min 53 s
Bit rate : 66 b/s
Frame rate : 0.268 FPS
Count of elements : 721
Stream size : 21.8 KiB (0%)
Language : Chinese
Default : No
Forced : No

Text #2
ID : 4
Format : UTF-8
Codec ID : S_TEXT/UTF8
Codec ID/Info : UTF-8 Plain Text
Duration : 44 min 53 s
Bit rate : 66 b/s
Frame rate : 0.268 FPS
Count of elements : 721
Stream size : 21.8 KiB (0%)
Title : Traditional
Language : Chinese
Default : No
Forced : No

Text #3
ID : 5
Format : UTF-8
Codec ID : S_TEXT/UTF8
Codec ID/Info : UTF-8 Plain Text
Duration : 44 min 13 s
Bit rate : 89 b/s
Frame rate : 0.266 FPS
Count of elements : 707
Stream size : 29.0 KiB (0%)
Language : Japanese
Default : No
Forced : No


点击图片可查看大图

软字幕无法在截图上展现,HDR版本/杜比视界版本截图会出现颜色异常,请使用支持的设备播放!

部分资源为软字幕,移动端推荐播放器:MxPlayer,nPlayer,infuse ,其他播放器请自行尝试。

部分资源为软字幕,电脑端推荐播放器:PotPlayer,完美解码,KMPLAYER,其他播放器请自行尝试。

下载端推荐纯BT下载软件:qBittorrent,Bitcomet,uTorrent ,其他下载软件请自行尝试。不支持吸血迅雷。

上传的附件:
最新回复 (0)