2024 日本 爱情 WEB-1080P 我很喜欢你,那你呢?[全10集][中文字幕].Although.I.Love.You.and.You.S01.1080p.KKTV.WEB-DL.AAC2.0.H.264-BlackTV 5.26GB

MAY20919R 2024-04-04 03:39 417


完整标题:我很喜欢你,那你呢?[全10集][中文字幕].Although.I.Love.You.and.You.S01.1080p.KKTV.WEB-DL.AAC2.0.H.264-BlackTV 5.26GB




◎标  题 我很喜欢你,那你呢?
◎片  名 好きやねんけどどうやろか
◎年  代 2024
◎产  地 日本
◎类  别 爱情 / 同性
◎语  言 日语
◎IMDb链接 https://www.imdb.com/title//
◎豆瓣链接 https://movie.douban.com/subject/36675475/
◎演  员 简秀吉 Hideyoshi Kan
      西山润 Jun Nishiyama

◎简  介
    该作以家庭小料理店为舞台,由肉食系的帅哥店主和认真的离婚工薪族展开的“令人心动的爱情故事”。在小料理店工作的年轻店主·松本荣枝,对某天被上司带去店里的上班族·曾我久志一见钟情……使用关西腔,对任何人都友好的松本荣枝由简秀吉饰演,从东京调到大阪的眼镜上班族曾我久志由西山润饰演。

##### MediaInfo ######
General
Unique ID : 56352807475724032092060685063324601662 (0x2A6527EB79043DFA408A71C7E2928D3E)
Complete name : Although.I.Love.You.and.You.S01E01.1080p.KKTV.WEB-DL.AAC2.0.H.264-BlackTV.mkv
Duration : 23 min 25 s
Overall bit rate : 3 216 kb/s

Video
ID : 1
Format : AVC
Format/Info : Advanced Video Codec
Format profile : [email protected]
Format settings : CABAC / 5 Ref Frames
Format settings, CABAC : Yes
Format settings, Reference frames : 5 frames
Codec ID : V_MPEG4/ISO/AVC
Duration : 23 min 25 s
Bit rate : 3 000 kb/s
Width : 1 920 pixels
Height : 1 080 pixels
Display aspect ratio : 16:9
Frame rate mode : Constant
Frame rate : 29.970 (30000/1001) FPS
Color space : YUV
Chroma subsampling : 4:2:0
Bit depth : 8 bits
Scan type : Progressive
Bits/(Pixel*Frame) : 0.048
Stream size : 506 MiB (94%)
Writing library : x264 core 142
Encoding settings : cabac=1 / ref=5 / deblock=1:0:0 / analyse=0x3:0x113 / me=umh / subme=9 / psy=1 / psy_rd=1.00:0.00 / mixed_ref=1 / me_range=32 / chroma_me=1 / trellis=1 / 8x8dct=1 / cqm=0 / deadzone=21,11 / fast_pskip=1 / chroma_qp_offset=-2 / threads=12 / lookahead_threads=1 / sliced_threads=0 / nr=0 / decimate=1 / interlaced=0 / bluray_compat=0 / stitchable=1 / constrained_intra=0 / bframes=3 / b_pyramid=2 / b_adapt=1 / b_bias=0 / direct=3 / weightb=1 / open_gop=0 / weightp=2 / keyint=30 / keyint_min=3 / scenecut=0 / intra_refresh=0 / rc_lookahead=40 / rc=abr / mbtree=1 / bitrate=3000 / ratetol=1.0 / qcomp=0.60 / qpmin=0 / qpmax=69 / qpstep=4 / vbv_maxrate=4500 / vbv_bufsize=6750 / nal_hrd=none / filler=0 / ip_ratio=1.40 / aq=1:1.00
Language : English
Default : Yes
Forced : No

Audio
ID : 2
Format : AAC LC
Format/Info : Advanced Audio Codec Low Complexity
Codec ID : A_AAC-2
Duration : 23 min 25 s
Bit rate : 192 kb/s
Channel(s) : 2 channels
Channel layout : L R
Sampling rate : 44.1 kHz
Frame rate : 43.066 FPS (1024 SPF)
Compression mode : Lossy
Stream size : 32.2 MiB (6%)
Language : English
Default : Yes
Forced : No

Text #1
ID : 3
Format : UTF-8
Codec ID : S_TEXT/UTF8
Codec ID/Info : UTF-8 Plain Text
Duration : 23 min 23 s
Bit rate : 49 b/s
Frame rate : 0.227 FPS
Count of elements : 319
Stream size : 8.55 KiB (0%)
Language : Chinese
Default : No
Forced : No

Text #2
ID : 4
Format : UTF-8
Codec ID : S_TEXT/UTF8
Codec ID/Info : UTF-8 Plain Text
Duration : 23 min 23 s
Bit rate : 49 b/s
Frame rate : 0.227 FPS
Count of elements : 319
Stream size : 8.55 KiB (0%)
Title : Traditional
Language : Chinese
Default : No
Forced : No

Text #3
ID : 5
Format : UTF-8
Codec ID : S_TEXT/UTF8
Codec ID/Info : UTF-8 Plain Text
Duration : 23 min 8 s
Bit rate : 67 b/s
Frame rate : 0.224 FPS
Count of elements : 311
Stream size : 11.4 KiB (0%)
Language : Japanese
Default : No
Forced : No


点击图片可查看大图

软字幕无法在截图上展现,HDR版本/杜比视界版本截图会出现颜色异常,请使用支持的设备播放!

部分资源为软字幕,移动端推荐播放器:MxPlayer,nPlayer,infuse ,其他播放器请自行尝试。

部分资源为软字幕,电脑端推荐播放器:PotPlayer,完美解码,KMPLAYER,其他播放器请自行尝试。

下载端推荐纯BT下载软件:qBittorrent,Bitcomet,uTorrent ,其他下载软件请自行尝试。不支持吸血迅雷。

上传的附件:
最新回复 (0)