2024 大陆 剧情 WEB-4K 烈焰[全40集][国语音轨/简繁英字幕].Burning.Flames.S01.2024.2160p.IQ.WEB-DL.H265.DDP5.1-LelveTV 58.04GB

RAY20920M 2024-04-04 03:44 4482


完整标题:烈焰[全40集][国语音轨/简繁英字幕].Burning.Flames.S01.2024.2160p.IQ.WEB-DL.H265.DDP5.1-LelveTV 58.04GB




◎标  题 烈焰
◎译  名 武庚纪 / 烈焰之武庚纪
◎年  代 2024
◎产  地 中国大陆
◎类  别 剧情 / 奇幻 / 古装
◎语  言 汉语普通话
◎IMDb链接 https://www.imdb.com/title/tt28455470/
◎豆瓣链接 https://movie.douban.com/subject/36061721/
◎导  演 郑伟文 Wai-Man Cheng
      刘崇崇 Chongchong Liu
◎演  员 任嘉伦 Jialun Ren
      邢菲 Fei Xing
      祝绪丹 Xudan Zhu
      严屹宽 Yikuan Yan
      朱正廷 Zhengting Zhu
      米热 Merxat
      蒋欣 Xin Jiang
      郑希怡 Hei-Yi Cheng
      陈乔恩 Joe Chen
      韩栋 Dong Han
      任言恺 Ming Ren
      徐正溪 Jeremy Xu
      何润东 Peter Ho
      马苏 Su Ma
      郭笑天 Xiaotian Guo
      黄灿灿 Cancan Huang
      刘向京 Xiang-Jing Liu
      刘些宁 Sally
      龙政璇 Zhengxuan Long
      庞瀚辰 Hanchen Pang
      戚砚笛 Yandi Qi
      宋文作 Wenzuo Song
      唐国忠 Kuo-chung Tang
      王巍 Wei Wang
      汪汐潮 Xichao Wang
      赵荀 Xun Zhao
      古子成 Zicheng Gu
      杜玉明 Yuming Du
      曹煜辰 Yuchen Cao
      书亚信 Ashin Shu
      孙子航 Zihang Sun
      明道 Ming Dow
      朱泳腾 Yongteng Zhu

◎简  介
    作为一部从东方神话故事中汲取灵感,以中华传统文化引领精神脉络的古装玄幻剧,故事讲述王子武庚拥有神族和人族的双重血脉,天资不凡,桀骜不驯。然辛国被神族覆灭,父母离世,高高在上的王子沦为奴隶。武庚在困境中历经磨难,与市井少女白菜和一群志同道合的朋友相识,带领人族集结神隐部、妖族、海灵族等,携手对抗强大的神族。武庚不断磨砺成长,从国仇家恨到为天下苍生而战,不断成长强大,成为天之战神。

##### MediaInfo ######
General
Unique ID : 192580424186716462915398822139453345127 (0x90E1A3FC074A07C05603755759D98D67)
Complete name : Burning.Flames.S01E01.2024.2160p.IQ.WEB-DL.H265.DDP5.1-LelveTV.mkv
Duration : 46 min 14 s
Overall bit rate : 4 728 kb/s

Video
ID : 1
Format : HEVC
Format/Info : High Efficiency Video Coding
Format profile : Main@L5@Main
Codec ID : V_MPEGH/ISO/HEVC
Duration : 46 min 13 s
Bit rate : 4 276 kb/s
Width : 3 840 pixels
Height : 1 608 pixels
Display aspect ratio : 2.40:1
Frame rate mode : Constant
Frame rate : 25.000 FPS
Color space : YUV
Chroma subsampling : 4:2:0
Bit depth : 8 bits
Bits/(Pixel*Frame) : 0.028
Stream size : 1.38 GiB (90%)
Language : Chinese
Default : Yes
Forced : No

Audio #1
ID : 2
Format : AAC LC
Format/Info : Advanced Audio Codec Low Complexity
Codec ID : A_AAC-2
Duration : 46 min 14 s
Bit rate : 192 kb/s
Channel(s) : 2 channels
Channel layout : L R
Sampling rate : 44.1 kHz
Frame rate : 43.066 FPS (1024 SPF)
Compression mode : Lossy
Stream size : 63.5 MiB (4%)
Default : No
Forced : No

Audio #2
ID : 3
Format : E-AC-3
Format/Info : Enhanced AC-3
Commercial name : Dolby Digital Plus
Codec ID : A_EAC3
Duration : 46 min 13 s
Bit rate mode : Constant
Bit rate : 256 kb/s
Channel(s) : 6 channels
Channel layout : L R C LFE Ls Rs
Sampling rate : 48.0 kHz
Frame rate : 31.250 FPS (1536 SPF)
Compression mode : Lossy
Stream size : 84.6 MiB (5%)
Title : zh-ch [Dolby Digital Plus 5.1]
Language : Chinese
Service kind : Complete Main
Default : Yes
Forced : No

Text #1
ID : 4
Format : UTF-8
Codec ID : S_TEXT/UTF8
Codec ID/Info : UTF-8 Plain Text
Duration : 43 min 6 s
Bit rate : 57 b/s
Frame rate : 0.295 FPS
Count of elements : 763
Stream size : 18.1 KiB (0%)
Title : Bahasa Malaysia
Language : Malay
Default : No
Forced : No

Text #2
ID : 5
Format : UTF-8
Codec ID : S_TEXT/UTF8
Codec ID/Info : UTF-8 Plain Text
Duration : 43 min 6 s
Bit rate : 59 b/s
Frame rate : 0.295 FPS
Count of elements : 763
Stream size : 18.9 KiB (0%)
Title : Bahasa Indonesia
Language : Indonesian
Default : No
Forced : No

Text #3
ID : 6
Format : UTF-8
Codec ID : S_TEXT/UTF8
Codec ID/Info : UTF-8 Plain Text
Duration : 43 min 6 s
Bit rate : 54 b/s
Frame rate : 0.295 FPS
Count of elements : 763
Stream size : 17.3 KiB (0%)
Title : Spanish
Language : Spanish
Default : No
Forced : No

Text #4
ID : 7
Format : UTF-8
Codec ID : S_TEXT/UTF8
Codec ID/Info : UTF-8 Plain Text
Duration : 42 min 51 s
Bit rate : 38 b/s
Frame rate : 0.289 FPS
Count of elements : 743
Stream size : 11.9 KiB (0%)
Title : Traditional Chinese
Language : Chinese
Default : No
Forced : No

Text #5
ID : 8
Format : UTF-8
Codec ID : S_TEXT/UTF8
Codec ID/Info : UTF-8 Plain Text
Duration : 43 min 6 s
Bit rate : 76 b/s
Frame rate : 0.295 FPS
Count of elements : 763
Stream size : 24.0 KiB (0%)
Title : Vietnamese
Language : Vietnamese
Default : No
Forced : No

Text #6
ID : 9
Format : UTF-8
Codec ID : S_TEXT/UTF8
Codec ID/Info : UTF-8 Plain Text
Duration : 43 min 6 s
Bit rate : 70 b/s
Frame rate : 0.295 FPS
Count of elements : 763
Stream size : 22.1 KiB (0%)
Title : Japanese
Language : Japanese
Default : No
Forced : No

Text #7
ID : 10
Format : UTF-8
Codec ID : S_TEXT/UTF8
Codec ID/Info : UTF-8 Plain Text
Duration : 42 min 51 s
Bit rate : 38 b/s
Frame rate : 0.289 FPS
Count of elements : 743
Stream size : 11.9 KiB (0%)
Title : Simplified Chinese
Language : Chinese
Default : Yes
Forced : No

Text #8
ID : 11
Format : UTF-8
Codec ID : S_TEXT/UTF8
Codec ID/Info : UTF-8 Plain Text
Duration : 43 min 6 s
Bit rate : 57 b/s
Frame rate : 0.295 FPS
Count of elements : 763
Stream size : 18.1 KiB (0%)
Title : Korean
Language : Korean
Default : No
Forced : No

Text #9
ID : 12
Format : UTF-8
Codec ID : S_TEXT/UTF8
Codec ID/Info : UTF-8 Plain Text
Duration : 42 min 51 s
Bit rate : 64 b/s
Frame rate : 0.289 FPS
Count of elements : 743
Stream size : 20.1 KiB (0%)
Title : Arabic
Language : Arabic
Default : No
Forced : No

Text #10
ID : 13
Format : UTF-8
Codec ID : S_TEXT/UTF8
Codec ID/Info : UTF-8 Plain Text
Duration : 43 min 6 s
Bit rate : 52 b/s
Frame rate : 0.295 FPS
Count of elements : 763
Stream size : 16.7 KiB (0%)
Title : English
Language : English
Default : No
Forced : No

Text #11
ID : 14
Format : UTF-8
Codec ID : S_TEXT/UTF8
Codec ID/Info : UTF-8 Plain Text
Duration : 43 min 6 s
Bit rate : 129 b/s
Frame rate : 0.295 FPS
Count of elements : 763
Stream size : 40.9 KiB (0%)
Title : Thai
Language : Thai
Default : No
Forced : No


点击图片可查看大图

软字幕无法在截图上展现,HDR版本/杜比视界版本截图会出现颜色异常,请使用支持的设备播放!

部分资源为软字幕,移动端推荐播放器:MxPlayer,nPlayer,infuse ,其他播放器请自行尝试。

部分资源为软字幕,电脑端推荐播放器:PotPlayer,完美解码,KMPLAYER,其他播放器请自行尝试。

下载端推荐纯BT下载软件:qBittorrent,Bitcomet,uTorrent ,其他下载软件请自行尝试。不支持吸血迅雷。

上传的附件:
最新回复 (0)