2024 日本 悬疑 WEB-1080P 伟大的礼物[全9集][中文字幕].Great.Gift.S01.1080p.WEB-DL.AAC2.0.H.264-BlackTV 22.60GB

Katt2092T 2024-04-04 03:46 755


完整标题:伟大的礼物[全9集][中文字幕].Great.Gift.S01.1080p.WEB-DL.AAC2.0.H.264-BlackTV 22.60GB




◎标  题 伟大的礼物
◎译  名 Great Gift
◎片  名 グレイトギフト
◎年  代 2024
◎产  地 日本
◎类  别 悬疑 / 犯罪
◎语  言 日语
◎IMDb链接 https://www.imdb.com/title//
◎豆瓣链接 https://movie.douban.com/subject/36657734/
◎导  演 本桥圭太 Keita Motohashi
      星野和成 Kazunari Hoshino
◎编  剧 黑岩勉 Tsutomu Kuroiwa
◎演  员 反町隆史 Takashi Sorimachi
      波瑠 Haru
      明日海里奥 Asumi Rio
      小野花梨 Karin Ono
      片山萌美 Moemi Katayama
      市川知宏 Tomohiro Ichikawa
      藤野凉子 Ryoko Fujino
      滨正悟 Shougo Hama
      中岛瑠菜 Runa Nakashima
      坂东弥十郎 Yajuro Bando
      津田健次郎 Kenjirô Tsuda
      仓科加奈 Kana Kurashina
      筒井道隆 Michitaka Tsutsui
      尾上松也 Matsuya Onoe
      佐佐木藏之介 Kuranosuke Sasaki

◎简  介
    某大学医院里,以某个患者的可疑死亡为契机,无法再上升的病理学医生·藤卷达臣发现了未知的杀人球菌“Gift”。如果这种球菌侵入体内,患者很快就会死亡。后来,球菌完全消失,死因只能诊断为急性心力衰竭,这是一种让完全犯罪成为可能的可怕球菌。意外登上权力阶梯的藤卷,能否在围绕杀人球菌的壮烈求生中生存下来?生存与死亡,正义与邪恶,纠葛到最后,他看到的景象是?而将球菌带入医院,导致连环杀人案的真凶究竟是谁呢?

##### MediaInfo ######
General
Unique ID : 253606817103910402612971482667783536894 (0xBECAE574F91443483E0016D07EFFC0FE)
Complete name : Great.Gift.S01E01.1080p.WEB-DL.AAC2.0.H.264-BlackTV.mkv
Duration : 49 min 55 s
Overall bit rate : 7 943 kb/s

Video
ID : 1
Format : AVC
Format/Info : Advanced Video Codec
Format profile : [email protected]
Format settings : CABAC / 1 Ref Frames
Format settings, CABAC : Yes
Format settings, Reference frames : 1 frame
Format settings, GOP : M=1, N=60
Codec ID : V_MPEG4/ISO/AVC
Duration : 49 min 55 s
Bit rate mode : Constant
Bit rate : 8 000 kb/s
Width : 1 920 pixels
Height : 1 080 pixels
Display aspect ratio : 16:9
Frame rate mode : Constant
Frame rate : 29.970 (30000/1001) FPS
Color space : YUV
Chroma subsampling : 4:2:0
Bit depth : 8 bits
Scan type : Progressive
Bits/(Pixel*Frame) : 0.129
Stream size : 2.73 GiB (98%)
Language : Japanese
Default : Yes
Forced : No

Audio
ID : 2
Format : AAC LC
Format/Info : Advanced Audio Codec Low Complexity
Codec ID : A_AAC-2
Duration : 49 min 55 s
Bit rate : 125 kb/s
Channel(s) : 2 channels
Channel layout : L R
Sampling rate : 48.0 kHz
Frame rate : 46.875 FPS (1024 SPF)
Compression mode : Lossy
Stream size : 44.8 MiB (2%)
Language : Japanese
Default : Yes
Forced : No

Text #1
ID : 3
Format : UTF-8
Codec ID : S_TEXT/UTF8
Codec ID/Info : UTF-8 Plain Text
Duration : 49 min 52 s
Bit rate : 59 b/s
Frame rate : 0.235 FPS
Count of elements : 704
Stream size : 21.8 KiB (0%)
Title : Traditional
Language : Chinese
Default : No
Forced : No

Text #2
ID : 4
Format : UTF-8
Codec ID : S_TEXT/UTF8
Codec ID/Info : UTF-8 Plain Text
Duration : 49 min 52 s
Bit rate : 141 b/s
Frame rate : 0.237 FPS
Count of elements : 709
Stream size : 51.5 KiB (0%)
Title : Traditional
Language : Chinese
Default : No
Forced : No

Text #3
ID : 5
Format : UTF-8
Codec ID : S_TEXT/UTF8
Codec ID/Info : UTF-8 Plain Text
Duration : 49 min 34 s
Bit rate : 77 b/s
Frame rate : 0.230 FPS
Count of elements : 684
Stream size : 28.1 KiB (0%)
Language : Japanese
Default : No
Forced : No


点击图片可查看大图

软字幕无法在截图上展现,HDR版本/杜比视界版本截图会出现颜色异常,请使用支持的设备播放!

部分资源为软字幕,移动端推荐播放器:MxPlayer,nPlayer,infuse ,其他播放器请自行尝试。

部分资源为软字幕,电脑端推荐播放器:PotPlayer,完美解码,KMPLAYER,其他播放器请自行尝试。

下载端推荐纯BT下载软件:qBittorrent,Bitcomet,uTorrent ,其他下载软件请自行尝试。不支持吸血迅雷。

上传的附件:
最新回复 (0)