2024 日本 剧情 WEB-1080P 神明渴望游戏[第01集][中文字幕].Kami.wa.Game.ni.Ueteiru.S01.2024.1080p.WEB-DL.H264.AAC-ZeroTV 1.19GB

MAY20919R 2024-04-04 03:47 329


完整标题:神明渴望游戏[第01集][中文字幕].Kami.wa.Game.ni.Ueteiru.S01.2024.1080p.WEB-DL.H264.AAC-ZeroTV 1.19GB




◎标  题 神明渴望游戏
◎译  名 渴求游戏之神。
◎片  名 神は遊戯に飢えている。
◎年  代 2024
◎产  地 日本
◎类  别 剧情 / 动画 / 奇幻
◎语  言 日语
◎IMDb链接 https://www.imdb.com/title//
◎豆瓣链接 https://movie.douban.com/subject/35745729/
◎导  演 白石达也 Tatsuya Shiraishi
◎编  剧 细音启 Sazane Kei
◎演  员 岛崎信长 Nobunaga Shimazaki
      鬼头明里 Akari Kitō
      立花日菜 Hina Tachibana
      中村栞奈 Kanna Nakamura
      小清水亚美 Ami Koshimizu
      伊东健人 Kento Itou
      伊藤美来 Itou Miku

◎简  介
    故事讲述无聊的神明们制作了一个终极益智游戏《诸神的游戏》,从冰里长眠3000年,热爱游戏的前神明少女レオレーシェ苏醒后做出宣言,「带上这个时代最会玩的人!」,而被指名的フェイ是备受期待成为「近年最强的新人」的使徒,两人共同挑战难度极大且还没有人类能完全攻略的《诸神的游戏》。   天才游戏少年、前神明少女与伙伴们就此展开和至高神明的终极脑力大战!

##### MediaInfo ######
General
Unique ID : 86517412019634937046293290341519120460 (0x4116A5BF69384E735A54101DDBE4D84C)
Complete name : Kami.wa.Game.ni.Ueteiru.S01E01.2024.1080p.WEB-DL.H264.AAC-ZeroTV.mkv
Duration : 23 min 40 s
Overall bit rate : 7 204 kb/s

Video
ID : 1
Format : AVC
Format/Info : Advanced Video Codec
Format profile : [email protected]
Format settings : CABAC / 1 Ref Frames
Format settings, CABAC : Yes
Format settings, Reference frames : 1 frame
Format settings, GOP : M=1, N=60
Codec ID : V_MPEG4/ISO/AVC
Duration : 23 min 40 s
Bit rate mode : Constant
Bit rate : 7 076 kb/s
Nominal bit rate : 8 000 kb/s
Width : 1 920 pixels
Height : 1 080 pixels
Display aspect ratio : 16:9
Frame rate mode : Constant
Frame rate : 29.970 (30000/1001) FPS
Color space : YUV
Chroma subsampling : 4:2:0
Bit depth : 8 bits
Scan type : Progressive
Bits/(Pixel*Frame) : 0.114
Stream size : 1.17 GiB (98%)
Language : English
Default : Yes
Forced : No

Audio
ID : 2
Format : AAC LC
Format/Info : Advanced Audio Codec Low Complexity
Codec ID : A_AAC-2
Duration : 23 min 39 s
Bit rate : 125 kb/s
Channel(s) : 2 channels
Channel layout : L R
Sampling rate : 48.0 kHz
Frame rate : 46.875 FPS (1024 SPF)
Compression mode : Lossy
Stream size : 21.2 MiB (2%)
Title : 日语
Language : Japanese
Default : Yes
Forced : No


点击图片可查看大图

软字幕无法在截图上展现,HDR版本/杜比视界版本截图会出现颜色异常,请使用支持的设备播放!

部分资源为软字幕,移动端推荐播放器:MxPlayer,nPlayer,infuse ,其他播放器请自行尝试。

部分资源为软字幕,电脑端推荐播放器:PotPlayer,完美解码,KMPLAYER,其他播放器请自行尝试。

下载端推荐纯BT下载软件:qBittorrent,Bitcomet,uTorrent ,其他下载软件请自行尝试。不支持吸血迅雷。

上传的附件:
最新回复 (0)