2024 韩国 喜剧 WEB-1080P 夜晚开的花[全12集][中文字幕].Knight.Flower.S01.1080p.WEB-DL.AAC2.0.H.264-BlackTV 40.12GB

MAY20919R 2024-04-04 03:48 517


完整标题:夜晚开的花[全12集][中文字幕].Knight.Flower.S01.1080p.WEB-DL.AAC2.0.H.264-BlackTV 40.12GB




◎标  题 夜晚开的花
◎译  名 Knight Flower
◎片  名 밤에 피는 꽃
◎年  代 2024
◎产  地 韩国
◎类  别 喜剧 / 动作 / 古装
◎语  言 韩语
◎IMDb链接 https://www.imdb.com/title//
◎豆瓣链接 https://movie.douban.com/subject/36159754/
◎导  演 张太维 Tae-yu Jang
◎演  员 李荷妮 Ha-nui Lee
      李钟元 Lee Jong-Won
      金相中 Sang-joong Kim
      李己雨 Ki-woo Lee
      李楼妃 Ruby Lee
      郑容柱 Yong-ju Jung

◎简  介
    一到晚上就翻墙的守节15年寡妇“玉华”和四大门内所有人都垂涎的铁壁男,从事官“秀浩”的惊险搞笑动作古装剧。

##### MediaInfo ######
General
Unique ID : 339942988871090894185884040147417159787 (0xFFBEA35ECA4809229EF4CE76E5FFD86B)
Complete name : Knight.Flower.S01E01.1080p.WEB-DL.AAC2.0.H.264-BlackTV.mkv
Duration : 1 h 7 min
Overall bit rate : 7 677 kb/s

Video
ID : 1
Format : AVC
Format/Info : Advanced Video Codec
Format profile : [email protected]
Format settings : CABAC / 1 Ref Frames
Format settings, CABAC : Yes
Format settings, Reference frames : 1 frame
Format settings, GOP : M=1, N=60
Codec ID : V_MPEG4/ISO/AVC
Duration : 1 h 7 min
Bit rate mode : Constant
Bit rate : 7 548 kb/s
Nominal bit rate : 8 000 kb/s
Width : 1 920 pixels
Height : 1 080 pixels
Display aspect ratio : 16:9
Frame rate mode : Constant
Frame rate : 29.970 (30000/1001) FPS
Color space : YUV
Chroma subsampling : 4:2:0
Bit depth : 8 bits
Scan type : Progressive
Bits/(Pixel*Frame) : 0.121
Stream size : 3.55 GiB (98%)
Language : Korean
Default : Yes
Forced : No

Audio
ID : 2
Format : AAC LC
Format/Info : Advanced Audio Codec Low Complexity
Codec ID : A_AAC-2
Duration : 1 h 7 min
Bit rate : 125 kb/s
Channel(s) : 2 channels
Channel layout : L R
Sampling rate : 48.0 kHz
Frame rate : 46.875 FPS (1024 SPF)
Compression mode : Lossy
Stream size : 60.3 MiB (2%)
Language : Korean
Default : Yes
Forced : No

Text
ID : 3
Format : UTF-8
Codec ID : S_TEXT/UTF8
Codec ID/Info : UTF-8 Plain Text
Duration : 1 h 6 min
Bit rate : 48 b/s
Frame rate : 0.221 FPS
Count of elements : 886
Stream size : 23.6 KiB (0%)
Title : Traditional
Language : Chinese
Default : No
Forced : No


点击图片可查看大图

软字幕无法在截图上展现,HDR版本/杜比视界版本截图会出现颜色异常,请使用支持的设备播放!

部分资源为软字幕,移动端推荐播放器:MxPlayer,nPlayer,infuse ,其他播放器请自行尝试。

部分资源为软字幕,电脑端推荐播放器:PotPlayer,完美解码,KMPLAYER,其他播放器请自行尝试。

下载端推荐纯BT下载软件:qBittorrent,Bitcomet,uTorrent ,其他下载软件请自行尝试。不支持吸血迅雷。

上传的附件:
最新回复 (0)