2024 日本 剧情 WEB-1080P Mars-零之革命-[全9集][中文字幕].MARS.S01.1080p.WEB-DL.AAC2.0.H.264-BlackTV 20.23GB

Katt2092T 2024-04-04 03:49 642


完整标题:Mars-零之革命-[全9集][中文字幕].MARS.S01.1080p.WEB-DL.AAC2.0.H.264-BlackTV 20.23GB




◎标  题 Mars-零之革命-
◎译  名 Mars-Zero的革命-
◎片  名 マルス-ゼロの革命-
◎年  代 2024
◎产  地 日本
◎类  别 剧情 / 悬疑
◎语  言 日语
◎IMDb链接 https://www.imdb.com/title//
◎豆瓣链接 https://movie.douban.com/subject/36657743/
◎导  演 平川雄一朗 Yuichiro Hirakawa
      片山修 Osamu Katayama
◎编  剧 武藤将吾 Shogo Muto
◎演  员 道枝骏佑 Shunsuke Michieda
      板垣李光人 Rihito Itagaki
      吉川爱 Ai Yoshikawa
      井上祐贵 Yuki Inoue
      横田真悠 Mayuu Yokota
      山时聪真 Soma Santoki
      泉泽祐希 Yuki Izumisawa
      江口洋介 Yôsuke Eguchi
      户塚纯贵 Junki Tozuka
      山口纱弥加 Sayaka Yamaguchi
      岩松了 Ryô Iwamatsu
      菜叶菜 Nahana
      野间口彻 Tôru Nomaguchi
      西垣匠 Sho Nishigaki
      皆藤空良 Sora Kaito
      那須ほほみ

◎简  介
    本剧是一部爽快的新感觉青春电视剧,讲述了“想要改变些什么”——抱有这样愿望的高中生们,在神秘而充满魅力的领导人的引导下,对成人社会举起了反旗。道枝饰演的是19岁的神秘转校生·美岛零,他煽动掉队的高中生说“和我一起破坏这个世界”。他擅长握人心,不知不觉间就能钻到人心的“缝隙 ”,具有言而有信的领导魅力。在零的煽动和引导下,高中生们结成了名为“Mars”的视频集团,试图打破大人建立的社会,再重新构建。

##### MediaInfo ######
General
Unique ID : 46357385667013494714513892048058539655 (0x22E01B93890D2B00A7DF78DAAC155E87)
Complete name : MARS.S01E01.1080p.WEB-DL.AAC2.0.H.264-BlackTV.mkv
Duration : 49 min 57 s
Overall bit rate : 7 902 kb/s

Video
ID : 1
Format : AVC
Format/Info : Advanced Video Codec
Format profile : [email protected]
Format settings : CABAC / 1 Ref Frames
Format settings, CABAC : Yes
Format settings, Reference frames : 1 frame
Format settings, GOP : M=1, N=60
Codec ID : V_MPEG4/ISO/AVC
Duration : 49 min 57 s
Bit rate mode : Constant
Bit rate : 8 000 kb/s
Width : 1 920 pixels
Height : 1 080 pixels
Display aspect ratio : 16:9
Frame rate mode : Constant
Frame rate : 29.970 (30000/1001) FPS
Color space : YUV
Chroma subsampling : 4:2:0
Bit depth : 8 bits
Scan type : Progressive
Bits/(Pixel*Frame) : 0.129
Stream size : 2.71 GiB (98%)
Language : Japanese
Default : Yes
Forced : No

Audio
ID : 2
Format : AAC LC
Format/Info : Advanced Audio Codec Low Complexity
Codec ID : A_AAC-2
Duration : 49 min 56 s
Bit rate : 125 kb/s
Channel(s) : 2 channels
Channel layout : L R
Sampling rate : 48.0 kHz
Frame rate : 46.875 FPS (1024 SPF)
Compression mode : Lossy
Stream size : 44.8 MiB (2%)
Language : Japanese
Default : Yes
Forced : No

Text #1
ID : 3
Format : UTF-8
Codec ID : S_TEXT/UTF8
Codec ID/Info : UTF-8 Plain Text
Duration : 49 min 52 s
Bit rate : 51 b/s
Frame rate : 0.250 FPS
Count of elements : 747
Stream size : 18.8 KiB (0%)
Title : Traditional
Language : Chinese
Default : No
Forced : No

Text #2
ID : 4
Format : UTF-8
Codec ID : S_TEXT/UTF8
Codec ID/Info : UTF-8 Plain Text
Duration : 49 min 52 s
Bit rate : 128 b/s
Frame rate : 0.253 FPS
Count of elements : 757
Stream size : 46.8 KiB (0%)
Title : Traditional
Language : Chinese
Default : No
Forced : No

Text #3
ID : 5
Format : UTF-8
Codec ID : S_TEXT/UTF8
Codec ID/Info : UTF-8 Plain Text
Duration : 49 min 12 s
Bit rate : 73 b/s
Frame rate : 0.249 FPS
Count of elements : 735
Stream size : 26.3 KiB (0%)
Language : Japanese
Default : No
Forced : No


点击图片可查看大图

软字幕无法在截图上展现,HDR版本/杜比视界版本截图会出现颜色异常,请使用支持的设备播放!

部分资源为软字幕,移动端推荐播放器:MxPlayer,nPlayer,infuse ,其他播放器请自行尝试。

部分资源为软字幕,电脑端推荐播放器:PotPlayer,完美解码,KMPLAYER,其他播放器请自行尝试。

下载端推荐纯BT下载软件:qBittorrent,Bitcomet,uTorrent ,其他下载软件请自行尝试。不支持吸血迅雷。

上传的附件:
最新回复 (0)