2024 日本 动作 WEB-1080P 金属口红[第13集][简繁英字幕].Metallic.Rouge.S01.2024.1080p.B-Global.WEB-DL.x264.AAC-ZeroTV 0.29GB

MAY20919R 2024-04-04 03:50 257


完整标题:金属口红[第13集][简繁英字幕].Metallic.Rouge.S01.2024.1080p.B-Global.WEB-DL.x264.AAC-ZeroTV 0.29GB




◎标  题 金属口红
◎译  名 金属胭脂 / Metallic Rouge
◎片  名 メタリックルージュ
◎年  代 2024
◎产  地 日本
◎类  别 动作 / 科幻 / 动画
◎语  言 日语
◎IMDb链接 https://www.imdb.com/title//
◎豆瓣链接 https://movie.douban.com/subject/36327991/
◎导  演 堀元宣 Hori Motonobu
◎编  剧 出渊裕 Yutaka Izubuchi
      根元岁三 Nemoto Toshizou
◎演  员 宫本侑芽 Yume Miyamoto
      黑泽朋世 Tomoyo Kurosawa
      武内骏辅 Shunsuke Takeuchi
      岛村侑 Yu Shimamura
      吉野裕行 Hiroyuki Yoshino
      津田健次郎 Kenjirô Tsuda
      小仓唯 Yui Ogura
      兴津和幸 Kazuyuki Okitsu
      宫内敦士 Atsushi Miyauchi
      小林千晃 Chiaki Kobayashi

◎简  介
    在人类和人造人共存的世界——   人造人少女 Ruge 与搭档 Naomi 一起,在火星上执行某项任务。   任务内容是,“消灭与政府敌对的 9 名人造人”。   人造人少女 Ruge 的战斗故事由此展开——

##### MediaInfo ######
General
Unique ID : 24769933790414299660953338986164432033 (0x12A284064654D6C9E10B8B8BE58CACA1)
Complete name : Metallic.Rouge.S01E13.2024.1080p.WEB-DL.x264.AAC-ZeroTV.mkv
Duration : 22 min 50 s
Overall bit rate : 1 804 kb/s

Video
ID : 1
Format : AVC
Format/Info : Advanced Video Codec
Format profile : High@L5
Format settings : CABAC / 8 Ref Frames
Format settings, CABAC : Yes
Format settings, Reference frames : 8 frames
Codec ID : V_MPEG4/ISO/AVC
Duration : 22 min 50 s
Bit rate : 1 607 kb/s
Width : 1 920 pixels
Height : 1 080 pixels
Display aspect ratio : 16:9
Frame rate mode : Constant
Frame rate : 23.976 (24000/1001) FPS
Original frame rate : 23.976 (23976/1000) FPS
Color space : YUV
Chroma subsampling : 4:2:0
Bit depth : 8 bits
Scan type : Progressive
Bits/(Pixel*Frame) : 0.032
Stream size : 262 MiB (89%)
Title : Japanese
Language : Japanese
Default : Yes
Forced : No
Color range : Limited
Color primaries : BT.709
Transfer characteristics : BT.709
Matrix coefficients : BT.709

Audio
ID : 2
Format : AAC LC
Format/Info : Advanced Audio Codec Low Complexity
Codec ID : A_AAC-2
Duration : 22 min 50 s
Bit rate : 192 kb/s
Channel(s) : 2 channels
Channel layout : L R
Sampling rate : 48.0 kHz
Frame rate : 46.875 FPS (1024 SPF)
Compression mode : Lossy
Stream size : 31.8 MiB (11%)
Title : Japanese
Language : Japanese
Default : Yes
Forced : No

Text #1
ID : 3
Format : UTF-8
Codec ID : S_TEXT/UTF8
Codec ID/Info : UTF-8 Plain Text
Duration : 22 min 16 s
Bit rate : 44 b/s
Frame rate : 0.244 FPS
Count of elements : 326
Stream size : 7.27 KiB (0%)
Title : Chinese Simplified
Language : Chinese
Default : Yes
Forced : No

Text #2
ID : 4
Format : UTF-8
Codec ID : S_TEXT/UTF8
Codec ID/Info : UTF-8 Plain Text
Duration : 22 min 16 s
Bit rate : 44 b/s
Frame rate : 0.244 FPS
Count of elements : 326
Stream size : 7.27 KiB (0%)
Title : Chinese Traditional
Language : Chinese
Default : No
Forced : No

Text #3
ID : 5
Format : UTF-8
Codec ID : S_TEXT/UTF8
Codec ID/Info : UTF-8 Plain Text
Duration : 22 min 17 s
Bit rate : 43 b/s
Frame rate : 0.203 FPS
Count of elements : 272
Stream size : 7.12 KiB (0%)
Title : English
Language : English
Default : No
Forced : No

Text #4
ID : 6
Format : ASS
Codec ID : S_TEXT/ASS
Codec ID/Info : Advanced Sub Station Alpha
Duration : 22 min 17 s
Bit rate : 171 b/s
Frame rate : 0.245 FPS
Count of elements : 328
Compression mode : Lossless
Stream size : 28.0 KiB (0%)
Title : ???????
Language : Thai
Default : No
Forced : No

Text #5
ID : 7
Format : UTF-8
Codec ID : S_TEXT/UTF8
Codec ID/Info : UTF-8 Plain Text
Duration : 22 min 16 s
Bit rate : 66 b/s
Frame rate : 0.196 FPS
Count of elements : 262
Stream size : 10.8 KiB (0%)
Title : Ti?ng Vi?t
Language : Vietnamese
Default : No
Forced : No

Text #6
ID : 8
Format : UTF-8
Codec ID : S_TEXT/UTF8
Codec ID/Info : UTF-8 Plain Text
Duration : 22 min 17 s
Bit rate : 47 b/s
Frame rate : 0.206 FPS
Count of elements : 275
Stream size : 7.76 KiB (0%)
Title : Bahasa Indonesia
Language : Indonesian
Default : No
Forced : No


点击图片可查看大图

软字幕无法在截图上展现,HDR版本/杜比视界版本截图会出现颜色异常,请使用支持的设备播放!

部分资源为软字幕,移动端推荐播放器:MxPlayer,nPlayer,infuse ,其他播放器请自行尝试。

部分资源为软字幕,电脑端推荐播放器:PotPlayer,完美解码,KMPLAYER,其他播放器请自行尝试。

下载端推荐纯BT下载软件:qBittorrent,Bitcomet,uTorrent ,其他下载软件请自行尝试。不支持吸血迅雷。

上传的附件:
最新回复 (0)