2024 日本 动作 WEB-1080P 金属口红[第13集][中文字幕].Metallic.Rouge.S01.2024.1080p.WEB-DL.H264.AAC-ZeroTV 1.24GB

MAY20919R 2024-04-04 03:53 360


完整标题:金属口红[第13集][中文字幕].Metallic.Rouge.S01.2024.1080p.WEB-DL.H264.AAC-ZeroTV 1.24GB




◎标  题 金属口红
◎译  名 金属胭脂 / Metallic Rouge
◎片  名 メタリックルージュ
◎年  代 2024
◎产  地 日本
◎类  别 动作 / 科幻 / 动画
◎语  言 日语
◎IMDb链接 https://www.imdb.com/title//
◎豆瓣链接 https://movie.douban.com/subject/36327991/
◎导  演 堀元宣 Hori Motonobu
◎编  剧 出渊裕 Yutaka Izubuchi
      根元岁三 Nemoto Toshizou
◎演  员 宫本侑芽 Yume Miyamoto
      黑泽朋世 Tomoyo Kurosawa
      武内骏辅 Shunsuke Takeuchi
      岛村侑 Yu Shimamura
      吉野裕行 Hiroyuki Yoshino
      津田健次郎 Kenjirô Tsuda
      小仓唯 Yui Ogura
      兴津和幸 Kazuyuki Okitsu
      宫内敦士 Atsushi Miyauchi
      小林千晃 Chiaki Kobayashi

◎简  介
    在人类和人造人共存的世界——   人造人少女 Ruge 与搭档 Naomi 一起,在火星上执行某项任务。   任务内容是,“消灭与政府敌对的 9 名人造人”。   人造人少女 Ruge 的战斗故事由此展开——

##### MediaInfo ######
General
Unique ID : 229444135217724737326880977633656640828 (0xAC9D554349C14211A840B4C64D23153C)
Complete name : Metallic.Rouge.S01E13.2024.1080p.WEB-DL.H264.AAC-ZeroTV.mkv
Duration : 22 min 50 s
Overall bit rate : 7 747 kb/s

Video
ID : 1
Format : AVC
Format/Info : Advanced Video Codec
Format profile : [email protected]
Format settings : CABAC / 1 Ref Frames
Format settings, CABAC : Yes
Format settings, Reference frames : 1 frame
Format settings, GOP : M=1, N=60
Codec ID : V_MPEG4/ISO/AVC
Duration : 22 min 50 s
Bit rate mode : Constant
Bit rate : 7 618 kb/s
Nominal bit rate : 8 000 kb/s
Width : 1 920 pixels
Height : 1 080 pixels
Display aspect ratio : 16:9
Frame rate mode : Constant
Frame rate : 29.970 (30000/1001) FPS
Color space : YUV
Chroma subsampling : 4:2:0
Bit depth : 8 bits
Scan type : Progressive
Bits/(Pixel*Frame) : 0.123
Stream size : 1.22 GiB (98%)
Language : English
Default : Yes
Forced : No

Audio
ID : 2
Format : AAC LC
Format/Info : Advanced Audio Codec Low Complexity
Codec ID : A_AAC-2
Duration : 22 min 49 s
Bit rate : 125 kb/s
Channel(s) : 2 channels
Channel layout : L R
Sampling rate : 48.0 kHz
Frame rate : 46.875 FPS (1024 SPF)
Compression mode : Lossy
Stream size : 20.5 MiB (2%)
Title : 日语
Language : Japanese
Default : Yes
Forced : No

Text #1
ID : 3
Format : UTF-8
Codec ID : S_TEXT/UTF8
Codec ID/Info : UTF-8 Plain Text
Duration : 22 min 16 s
Bit rate : 44 b/s
Frame rate : 0.244 FPS
Count of elements : 326
Stream size : 7.27 KiB (0%)
Title : 简体中文
Language : Chinese
Default : No
Forced : No

Text #2
ID : 4
Format : UTF-8
Codec ID : S_TEXT/UTF8
Codec ID/Info : UTF-8 Plain Text
Duration : 22 min 16 s
Bit rate : 44 b/s
Frame rate : 0.244 FPS
Count of elements : 326
Stream size : 7.27 KiB (0%)
Title : 繁体中文
Language : Chinese
Default : No
Forced : No


点击图片可查看大图

软字幕无法在截图上展现,HDR版本/杜比视界版本截图会出现颜色异常,请使用支持的设备播放!

部分资源为软字幕,移动端推荐播放器:MxPlayer,nPlayer,infuse ,其他播放器请自行尝试。

部分资源为软字幕,电脑端推荐播放器:PotPlayer,完美解码,KMPLAYER,其他播放器请自行尝试。

下载端推荐纯BT下载软件:qBittorrent,Bitcomet,uTorrent ,其他下载软件请自行尝试。不支持吸血迅雷。

上传的附件:
最新回复 (0)