2024 日本 剧情 WEB-1080P 大奥[全11集][中文字幕].Ooku.S01.1080p.KKTV.WEB-DL.AAC2.0.H.264-BlackTV 11.41GB

RAY20920M 2024-04-04 03:54 563


完整标题:大奥[全11集][中文字幕].Ooku.S01.1080p.KKTV.WEB-DL.AAC2.0.H.264-BlackTV 11.41GB




◎标  题 大奥
◎年  代 2024
◎产  地 日本
◎类  别 剧情 / 古装
◎语  言 日语
◎IMDb链接 https://www.imdb.com/title//
◎豆瓣链接 https://movie.douban.com/subject/36490035/
◎导  演 兼崎涼介 Ryosuke Kanezaki
◎编  剧 大北遥 Haruka Okita
◎演  员 小芝风花 Fuka Koshiba
      龟梨和也 Kazuya Kamenashi
      西野七濑 Nanase Nishino
      森川葵 Aoi morikawa
      宫馆凉太 Ryota Miyadate
      栗山千明 Chiaki Kuriyama
      高桥克典 Katsunori Takahashi
      阵内孝则 Takanori Jinnai
      安田显 Ken Yasuda
      田中道子 Michiko Tanaka
      本多力 Riki Honda
      铃木仁 Suzuki Jin
      井本彩花 Ayaka Imoto
      绀野光 Hikaru Konno

◎简  介
    本剧讲述了东山天皇的皇子·闲院宫直仁亲王的女儿、拥有皇室血统的公家之女·五十宫伦子,在京都老老实实地长大,拥有从不怀疑别人、纯真温柔的性格,但另一方面内心坚强,聪明伶俐。但是,作为朝廷和幕府之间的桥梁,伦子被迫与下任将军德川家治进行政治婚姻,命运的捉弄让她无法逃脱,各种各样的考验挡在她的面前。前代的第9代将军·德川家重神秘死亡,家治成为第10代将军,伦子作为将军正室前往男子禁制的大奥,不过,那样的她对在京都时的青梅竹马·久我信通有好感。

##### MediaInfo ######
General
Unique ID : 218496002593375296500717180719146027951 (0xA460CCA649A819E775E0A3BD8BC54BAF)
Complete name : Ooku.S01E01.1080p.KKTV.WEB-DL.AAC2.0.H.264-BlackTV.mkv
Duration : 56 min 32 s
Overall bit rate : 3 198 kb/s

Video
ID : 1
Format : AVC
Format/Info : Advanced Video Codec
Format profile : [email protected]
Format settings : CABAC / 5 Ref Frames
Format settings, CABAC : Yes
Format settings, Reference frames : 5 frames
Codec ID : V_MPEG4/ISO/AVC
Duration : 56 min 32 s
Bit rate : 3 000 kb/s
Width : 1 920 pixels
Height : 1 080 pixels
Display aspect ratio : 16:9
Frame rate mode : Constant
Frame rate : 29.970 (30000/1001) FPS
Color space : YUV
Chroma subsampling : 4:2:0
Bit depth : 8 bits
Scan type : Progressive
Bits/(Pixel*Frame) : 0.048
Stream size : 1.19 GiB (94%)
Writing library : x264 core 142
Encoding settings : cabac=1 / ref=5 / deblock=1:0:0 / analyse=0x3:0x113 / me=umh / subme=9 / psy=1 / psy_rd=1.00:0.00 / mixed_ref=1 / me_range=32 / chroma_me=1 / trellis=1 / 8x8dct=1 / cqm=0 / deadzone=21,11 / fast_pskip=1 / chroma_qp_offset=-2 / threads=12 / lookahead_threads=1 / sliced_threads=0 / nr=0 / decimate=1 / interlaced=0 / bluray_compat=0 / stitchable=1 / constrained_intra=0 / bframes=3 / b_pyramid=2 / b_adapt=1 / b_bias=0 / direct=3 / weightb=1 / open_gop=0 / weightp=2 / keyint=30 / keyint_min=3 / scenecut=0 / intra_refresh=0 / rc_lookahead=40 / rc=abr / mbtree=1 / bitrate=3000 / ratetol=1.0 / qcomp=0.60 / qpmin=0 / qpmax=69 / qpstep=4 / vbv_maxrate=4500 / vbv_bufsize=6750 / nal_hrd=none / filler=0 / ip_ratio=1.40 / aq=1:1.00
Language : English
Default : Yes
Forced : No

Audio
ID : 2
Format : AAC LC
Format/Info : Advanced Audio Codec Low Complexity
Codec ID : A_AAC-2
Duration : 56 min 32 s
Bit rate : 192 kb/s
Channel(s) : 2 channels
Channel layout : L R
Sampling rate : 44.1 kHz
Frame rate : 43.066 FPS (1024 SPF)
Compression mode : Lossy
Stream size : 77.7 MiB (6%)
Language : English
Default : Yes
Forced : No

Text #1
ID : 3
Format : UTF-8
Codec ID : S_TEXT/UTF8
Codec ID/Info : UTF-8 Plain Text
Duration : 55 min 52 s
Bit rate : 30 b/s
Frame rate : 0.151 FPS
Count of elements : 507
Stream size : 12.5 KiB (0%)
Language : Chinese
Default : No
Forced : No

Text #2
ID : 4
Format : UTF-8
Codec ID : S_TEXT/UTF8
Codec ID/Info : UTF-8 Plain Text
Duration : 55 min 52 s
Bit rate : 30 b/s
Frame rate : 0.151 FPS
Count of elements : 507
Stream size : 12.5 KiB (0%)
Title : Traditional
Language : Chinese
Default : No
Forced : No

Text #3
ID : 5
Format : UTF-8
Codec ID : S_TEXT/UTF8
Codec ID/Info : UTF-8 Plain Text
Duration : 55 min 32 s
Bit rate : 41 b/s
Frame rate : 0.149 FPS
Count of elements : 496
Stream size : 17.0 KiB (0%)
Language : Japanese
Default : No
Forced : No


点击图片可查看大图

软字幕无法在截图上展现,HDR版本/杜比视界版本截图会出现颜色异常,请使用支持的设备播放!

部分资源为软字幕,移动端推荐播放器:MxPlayer,nPlayer,infuse ,其他播放器请自行尝试。

部分资源为软字幕,电脑端推荐播放器:PotPlayer,完美解码,KMPLAYER,其他播放器请自行尝试。

下载端推荐纯BT下载软件:qBittorrent,Bitcomet,uTorrent ,其他下载软件请自行尝试。不支持吸血迅雷。

上传的附件:
最新回复 (0)