2024 日本 剧情 WEB-1080P 再见了指挥大师~父亲与我的热情~[全10集][中文字幕].Sayonara.Maestro.S01.1080p.KKTV.WEB-DL.AAC2.0.H.264-BlackTV 12.03GB

MAY20919R 2024-04-04 03:55 346


完整标题:再见了指挥大师~父亲与我的热情~[全10集][中文字幕].Sayonara.Maestro.S01.1080p.KKTV.WEB-DL.AAC2.0.H.264-BlackTV 12.03GB




◎标  题 再见了指挥大师~父亲与我的热情~
◎译  名 再见 Maestro 〜父亲和我的 Appassionato 〜
◎片  名 さよならマエストロ~父と私のアパッシオナート~
◎年  代 2024
◎产  地 日本
◎类  别 剧情 / 家庭
◎语  言 日语
◎IMDb链接 https://www.imdb.com/title//
◎豆瓣链接 https://movie.douban.com/subject/36622912/
◎导  演 坪井敏雄 Tsuboi Toshio
      石井康晴 Yasuharu Ishii
◎编  剧 大岛里美 Satomi Oshima
◎演  员 西岛秀俊 Hidetoshi Nishijima
      芦田爱菜 Mana Ashida
      新木优子 Yuko Araki
      宫泽冰鱼 Hio Miyazawa
      玉山铁二 Tetsuji Tamayama
      满岛真之介 Shin'nosuke Mitsushima
      津田宽治 Kanji Tsuda
      石田百合子 Yuriko Ishida
      当真亚美 Ami Touma
      西田敏行 Toshiyuki Nishida

◎简  介
    该剧讲述笨拙的父亲和叛逆女儿的父女亲情故事。西岛秀俊饰演天才指挥家夏目俊平,但是除了音乐以外的能力都是零。芦田爱菜饰演他的女儿、在市政府工作的20岁女性夏目响。与父亲完全相反,讨厌音乐,过着没有音乐的人生的响因5年前的“某个事件”与父亲诀别,但时隔数十年父亲突然回国,两人开始了尴尬的同居生活。

##### MediaInfo ######
General
Unique ID : 283589630448900892972185227615627330626 (0xD5596049653896DDBBA2E847C13F4442)
Complete name : Sayonara.Maestro.S01E01.1080p.KKTV.WEB-DL.AAC2.0.H.264-BlackTV.mkv
Duration : 1 h 8 min
Overall bit rate : 3 195 kb/s

Video
ID : 1
Format : AVC
Format/Info : Advanced Video Codec
Format profile : [email protected]
Format settings : CABAC / 5 Ref Frames
Format settings, CABAC : Yes
Format settings, Reference frames : 5 frames
Format settings, GOP : M=1, N=30
Codec ID : V_MPEG4/ISO/AVC
Duration : 1 h 8 min
Bit rate : 3 000 kb/s
Width : 1 920 pixels
Height : 1 080 pixels
Display aspect ratio : 16:9
Frame rate mode : Constant
Frame rate : 29.970 (30000/1001) FPS
Color space : YUV
Chroma subsampling : 4:2:0
Bit depth : 8 bits
Scan type : Progressive
Bits/(Pixel*Frame) : 0.048
Stream size : 1.45 GiB (94%)
Writing library : x264 core 142
Encoding settings : cabac=1 / ref=5 / deblock=1:0:0 / analyse=0x3:0x113 / me=umh / subme=9 / psy=1 / psy_rd=1.00:0.00 / mixed_ref=1 / me_range=32 / chroma_me=1 / trellis=1 / 8x8dct=1 / cqm=0 / deadzone=21,11 / fast_pskip=1 / chroma_qp_offset=-2 / threads=12 / lookahead_threads=1 / sliced_threads=0 / nr=0 / decimate=1 / interlaced=0 / bluray_compat=0 / stitchable=1 / constrained_intra=0 / bframes=3 / b_pyramid=2 / b_adapt=1 / b_bias=0 / direct=3 / weightb=1 / open_gop=0 / weightp=2 / keyint=30 / keyint_min=3 / scenecut=0 / intra_refresh=0 / rc_lookahead=40 / rc=abr / mbtree=1 / bitrate=3000 / ratetol=1.0 / qcomp=0.60 / qpmin=0 / qpmax=69 / qpstep=4 / vbv_maxrate=4500 / vbv_bufsize=6750 / nal_hrd=none / filler=0 / ip_ratio=1.40 / aq=1:1.00
Language : English
Default : Yes
Forced : No

Audio
ID : 2
Format : AAC LC
Format/Info : Advanced Audio Codec Low Complexity
Codec ID : A_AAC-2
Duration : 1 h 8 min
Bit rate : 192 kb/s
Channel(s) : 2 channels
Channel layout : L R
Sampling rate : 44.1 kHz
Frame rate : 43.066 FPS (1024 SPF)
Compression mode : Lossy
Stream size : 94.7 MiB (6%)
Language : English
Default : Yes
Forced : No

Text #1
ID : 3
Format : UTF-8
Codec ID : S_TEXT/UTF8
Codec ID/Info : UTF-8 Plain Text
Duration : 1 h 8 min
Bit rate : 41 b/s
Frame rate : 0.194 FPS
Count of elements : 801
Stream size : 21.1 KiB (0%)
Language : Chinese
Default : No
Forced : No

Text #2
ID : 4
Format : UTF-8
Codec ID : S_TEXT/UTF8
Codec ID/Info : UTF-8 Plain Text
Duration : 1 h 8 min
Bit rate : 41 b/s
Frame rate : 0.194 FPS
Count of elements : 801
Stream size : 21.1 KiB (0%)
Title : Traditional
Language : Chinese
Default : No
Forced : No

Text #3
ID : 5
Format : UTF-8
Codec ID : S_TEXT/UTF8
Codec ID/Info : UTF-8 Plain Text
Duration : 1 h 8 min
Bit rate : 58 b/s
Frame rate : 0.187 FPS
Count of elements : 770
Stream size : 29.6 KiB (0%)
Language : Japanese
Default : No
Forced : No


点击图片可查看大图

软字幕无法在截图上展现,HDR版本/杜比视界版本截图会出现颜色异常,请使用支持的设备播放!

部分资源为软字幕,移动端推荐播放器:MxPlayer,nPlayer,infuse ,其他播放器请自行尝试。

部分资源为软字幕,电脑端推荐播放器:PotPlayer,完美解码,KMPLAYER,其他播放器请自行尝试。

下载端推荐纯BT下载软件:qBittorrent,Bitcomet,uTorrent ,其他下载软件请自行尝试。不支持吸血迅雷。

上传的附件:
最新回复 (0)