2024 日本 动画 WEB-1080P 战国妖狐 救世姐弟篇[第13集][中文字幕].Sengoku.Youko.S01.2024.1080p.WEB-DL.H264.AAC-ZeroTV 1.29GB

MAY20919R 2024-04-04 03:59 354


完整标题:战国妖狐 救世姐弟篇[第13集][中文字幕].Sengoku.Youko.S01.2024.1080p.WEB-DL.H264.AAC-ZeroTV 1.29GB




◎标  题 战国妖狐 救世姐弟篇
◎译  名 战国妖狐 世直姐弟篇
◎片  名 戦国妖狐 世直し姉弟編
◎年  代 2024
◎产  地 日本
◎类  别 动画 / 奇幻 / 古装
◎语  言 日语
◎IMDb链接 https://www.imdb.com/title/tt30325850/
◎豆瓣链接 https://movie.douban.com/subject/36478659/
◎导  演 相泽伽月 Masahiro Aizawa
◎编  剧 花田十辉 Jukki Hanada
◎演  员 齐藤壮马 Soma Saito
      高田忧希 Yûki Takada
      木村良平 Ryohei Kimura
      黑泽朋世 Tomoyo Kurosawa
      七海弘希 Hiroki Nanami
      东地宏树 Hiroki Touchi
      乃村健次 Kenji Nomura
      稻田彻 Tetsu Inada
      宫城一贵 Miyagi Kazuki
      高垣彩阳 Ayahi Takagaki
      铃木爱奈 Aina Suzuki
      津田健次郎 Kenjirô Tsuda
      内田真礼 Maaya Uchida
      丰崎爱生 Aki Toyosaki

◎简  介
    时间为战国时代,世上所具有的各种魑魅魍魉、异形妖怪等非人灵力生物总称为”暗“。喜欢人类的暗——妖狐玉,以及厌恶人类的仙道——迅火,成立了名为“救世姐弟”的组合进行著扫荡罪恶的救世活动,途中遇上了武士兵头真介。另外还有一群专门对付暗的僧侣·断怪众,他们为了消灭对人类作恶的暗“障怪”的以不人道的方式进行人体改造,迅火等人与他们产生激烈冲突!人类当中也有坏人,非人类的存在也不见得都是邪恶的,迅火因过去的事而极其讨厌人类,但在旅程当中,也逐渐目睹到人类善良的一面,他是否能有所转变呢。

##### MediaInfo ######
General
Unique ID : 258659092287103773709403267469613980133 (0xC297EDDAF6C89D9A57D9C89933E3D9E5)
Complete name : Sengoku.Youko.S01E13.2024.1080p.WEB-DL.H264.AAC-ZeroTV.mkv
Duration : 23 min 49 s
Overall bit rate : 7 721 kb/s

Video
ID : 1
Format : AVC
Format/Info : Advanced Video Codec
Format profile : [email protected]
Format settings : CABAC / 1 Ref Frames
Format settings, CABAC : Yes
Format settings, Reference frames : 1 frame
Format settings, GOP : M=1, N=60
Codec ID : V_MPEG4/ISO/AVC
Duration : 23 min 49 s
Bit rate mode : Constant
Bit rate : 7 592 kb/s
Nominal bit rate : 8 000 kb/s
Width : 1 920 pixels
Height : 1 080 pixels
Display aspect ratio : 16:9
Frame rate mode : Constant
Frame rate : 29.970 (30000/1001) FPS
Color space : YUV
Chroma subsampling : 4:2:0
Bit depth : 8 bits
Scan type : Progressive
Bits/(Pixel*Frame) : 0.122
Stream size : 1.26 GiB (98%)
Language : English
Default : Yes
Forced : No

Audio
ID : 2
Format : AAC LC
Format/Info : Advanced Audio Codec Low Complexity
Codec ID : A_AAC-2
Duration : 23 min 49 s
Bit rate : 125 kb/s
Channel(s) : 2 channels
Channel layout : L R
Sampling rate : 48.0 kHz
Frame rate : 46.875 FPS (1024 SPF)
Compression mode : Lossy
Stream size : 21.4 MiB (2%)
Title : 日语
Language : Japanese
Default : Yes
Forced : No

Text #1
ID : 3
Format : UTF-8
Codec ID : S_TEXT/UTF8
Codec ID/Info : UTF-8 Plain Text
Duration : 23 min 42 s
Bit rate : 52 b/s
Frame rate : 0.230 FPS
Count of elements : 327
Stream size : 9.05 KiB (0%)
Title : 简体中文
Language : Chinese
Default : No
Forced : No

Text #2
ID : 4
Format : UTF-8
Codec ID : S_TEXT/UTF8
Codec ID/Info : UTF-8 Plain Text
Duration : 23 min 42 s
Bit rate : 52 b/s
Frame rate : 0.230 FPS
Count of elements : 327
Stream size : 9.05 KiB (0%)
Title : 繁体中文
Language : Chinese
Default : No
Forced : No


点击图片可查看大图

软字幕无法在截图上展现,HDR版本/杜比视界版本截图会出现颜色异常,请使用支持的设备播放!

部分资源为软字幕,移动端推荐播放器:MxPlayer,nPlayer,infuse ,其他播放器请自行尝试。

部分资源为软字幕,电脑端推荐播放器:PotPlayer,完美解码,KMPLAYER,其他播放器请自行尝试。

下载端推荐纯BT下载软件:qBittorrent,Bitcomet,uTorrent ,其他下载软件请自行尝试。不支持吸血迅雷。

上传的附件:
最新回复 (0)