2024 韩国 剧情 WEB-1080P 七人的复活[第01-04集][中文字幕].1080p.HamiVideo.WEB-DL.AAC2.0.H.264-BlackTV 8.40GB

Katt2092T 2024-04-04 04:02 531


完整标题:七人的复活[第01-04集][中文字幕].1080p.HamiVideo.WEB-DL.AAC2.0.H.264-BlackTV 8.40GB




◎标  题 七人的复活
◎译  名 七人的逃脱 第二季 / 7인의 탈출2 / Reborn of the Seven: War For Survival Season 2 / The Escape of the Seven: Resurrection
◎片  名 7인의 부활
◎年  代 2024
◎产  地 韩国
◎类  别 剧情 / 悬疑
◎语  言 韩语
◎IMDb链接 https://www.imdb.com/title//
◎豆瓣链接 https://movie.douban.com/subject/36283153/
◎导  演 朱东民 Dong-min Joo
      吴俊赫 Joon-hyuk Oh
◎编  剧 金顺玉 Kim Sun-ok
◎演  员 严基俊 Ki-joon Um
      黄正音 Jeong-eum Hwang
      李准 Joon Lee
      李侑菲 Yoo-Bi Lee
      申恩庆 Eun-Kyung Shin
      尹仲勋 Jong-hoon Yoon
      赵允熙 Yun-hee Cho
      赵在允 Jae-yun Jo
      李德华 Deok-hwa Lee

◎简  介
    SBS剧集《七人的逃脱》将季播,预计拍摄第二季。

##### MediaInfo ######
General
Unique ID : 220018848823815182976482847593534199233 (0xA58616C3FB3F6F84F1615FA7D74215C1)
Complete name : The.Escape.Of.The.Seven.Resurrection.S01E01.1080p.HamiVideo.WEB-DL.AAC2.0.H.264-BlackTV.mkv
Duration : 41 min 44 s
Overall bit rate : 7 975 kb/s

Video
ID : 1
Format : AVC
Format/Info : Advanced Video Codec
Format profile : High@L4
Format settings : CABAC / 3 Ref Frames
Format settings, CABAC : Yes
Format settings, Reference frames : 3 frames
Format settings, GOP : M=1, N=30
Codec ID : V_MPEG4/ISO/AVC
Duration : 41 min 44 s
Bit rate : 7 872 kb/s
Width : 1 920 pixels
Height : 1 080 pixels
Display aspect ratio : 16:9
Frame rate mode : Constant
Frame rate : 29.970 (30000/1001) FPS
Color space : YUV
Chroma subsampling : 4:2:0
Bit depth : 8 bits
Scan type : Progressive
Bits/(Pixel*Frame) : 0.127
Stream size : 2.29 GiB (98%)
Writing library : x264 core 157 r2935 545de2f
Encoding settings : cabac=1 / ref=3 / deblock=1:0:0 / analyse=0x3:0x113 / me=hex / subme=7 / psy=1 / psy_rd=1.00:0.00 / mixed_ref=1 / me_range=16 / chroma_me=1 / trellis=1 / 8x8dct=1 / cqm=0 / deadzone=21,11 / fast_pskip=1 / chroma_qp_offset=-2 / threads=34 / lookahead_threads=5 / sliced_threads=0 / nr=0 / decimate=1 / interlaced=0 / bluray_compat=0 / constrained_intra=0 / bframes=0 / weightp=2 / keyint=30 / keyint_min=16 / scenecut=0 / intra_refresh=0 / rc_lookahead=30 / rc=abr / mbtree=1 / bitrate=7872 / ratetol=1.0 / qcomp=0.60 / qpmin=0 / qpmax=69 / qpstep=4 / vbv_maxrate=8000 / vbv_bufsize=7872 / nal_hrd=none / filler=0 / ip_ratio=1.40 / aq=1:1.00
Language : Korean
Default : Yes
Forced : No

Audio
ID : 2
Format : AAC LC
Format/Info : Advanced Audio Codec Low Complexity
Codec ID : A_AAC-2
Duration : 41 min 44 s
Bit rate : 128 kb/s
Channel(s) : 2 channels
Channel layout : L R
Sampling rate : 48.0 kHz
Frame rate : 46.875 FPS (1024 SPF)
Compression mode : Lossy
Stream size : 38.2 MiB (2%)
Language : English
Default : Yes
Forced : No


点击图片可查看大图

软字幕无法在截图上展现,HDR版本/杜比视界版本截图会出现颜色异常,请使用支持的设备播放!

部分资源为软字幕,移动端推荐播放器:MxPlayer,nPlayer,infuse ,其他播放器请自行尝试。

部分资源为软字幕,电脑端推荐播放器:PotPlayer,完美解码,KMPLAYER,其他播放器请自行尝试。

下载端推荐纯BT下载软件:qBittorrent,Bitcomet,uTorrent ,其他下载软件请自行尝试。不支持吸血迅雷。

上传的附件:
最新回复 (0)