2024 日本 爱情 WEB-1080P 因为你把心给了我[全11集][中文字幕].The.Gift.of.Your.Heart.S01.1080p.WEB-DL.AAC2.0.H.264-BlackTV 28.16GB

Katt2092T 2024-04-04 04:03 466


完整标题:因为你把心给了我[全11集][中文字幕].The.Gift.of.Your.Heart.S01.1080p.WEB-DL.AAC2.0.H.264-BlackTV 28.16GB




◎标  题 因为你把心给了我
◎译  名 你把心交给了我
◎片  名 君が心をくれたから
◎年  代 2024
◎产  地 日本
◎类  别 爱情 / 奇幻
◎语  言 日语
◎IMDb链接 https://www.imdb.com/title//
◎豆瓣链接 https://movie.douban.com/subject/36636838/
◎导  演 松山博昭 Hiroaki Matsuyama
◎编  剧 宇山佳佑 Keisuke Uyama
◎演  员 永野芽郁 Mei Nagano
      山田裕贵 Yûki Yamada
      斋藤工 Takumi Saitô
      松本若菜 Wakana Matsumoto
      白洲迅 Jin Shirasu
      出口夏希 Natsuki Deguchi
      真飞圣 Sei Matobu
      远藤宪一 Ken'ichi Endô
      余贵美子 Kimiko Yo
      萤雪次朗 Yukijirô Hotaru
      佐藤贵史 Takashi Satô
      谷恭辅 Kyosuke Tani
      萩原护 Hagiwara Mamoru

◎简  介
    逢原雨因为悲伤的过去,对自己没有自信,不向别人敞开心扉。但是,回到故乡长崎的某天,与过去唯一心意相通、至今难忘的男性——朝野太阳重逢。但是,重逢的喜悦只持续了一会儿,他就遭遇了事故。在悲痛欲绝的雨面前,一个自称是来自另一个世界的向导的男人说:“如果你愿意‘交出心’ ,那么从现在开始,我将为你创造奇迹。” 但向导提出的“交出心”的条件,对雨来说实在是太残酷了。用来换取奇迹的雨的心究竟意味着什么呢?然后,根据向导的“奇迹”,2人会发生什么呢?一心一意互相思念的雨和太阳,两个名字完全相反的人交织在一起,今冬最纯洁的爱情故事即将拉开帷幕。

##### MediaInfo ######
General
Unique ID : 98145715320039275510360260712917316179 (0x49D62D5D4B7D2918047F030B920F3253)
Complete name : The.Gift.of.Your.Heart.S01E01.1080p.WEB-DL.AAC2.0.H.264-BlackTV.mkv
Duration : 1 h 10 min
Overall bit rate : 7 822 kb/s

Video
ID : 1
Format : AVC
Format/Info : Advanced Video Codec
Format profile : [email protected]
Format settings : CABAC / 1 Ref Frames
Format settings, CABAC : Yes
Format settings, Reference frames : 1 frame
Format settings, GOP : M=1, N=60
Codec ID : V_MPEG4/ISO/AVC
Duration : 1 h 10 min
Bit rate mode : Constant
Bit rate : 8 000 kb/s
Width : 1 920 pixels
Height : 1 080 pixels
Display aspect ratio : 16:9
Frame rate mode : Constant
Frame rate : 29.970 (30000/1001) FPS
Color space : YUV
Chroma subsampling : 4:2:0
Bit depth : 8 bits
Scan type : Progressive
Bits/(Pixel*Frame) : 0.129
Stream size : 3.77 GiB (98%)
Language : Japanese
Default : Yes
Forced : No

Audio
ID : 2
Format : AAC LC
Format/Info : Advanced Audio Codec Low Complexity
Codec ID : A_AAC-2
Duration : 1 h 10 min
Bit rate : 125 kb/s
Channel(s) : 2 channels
Channel layout : L R
Sampling rate : 48.0 kHz
Frame rate : 46.875 FPS (1024 SPF)
Compression mode : Lossy
Stream size : 63.0 MiB (2%)
Language : Japanese
Default : Yes
Forced : No

Text #1
ID : 3
Format : UTF-8
Codec ID : S_TEXT/UTF8
Codec ID/Info : UTF-8 Plain Text
Duration : 1 h 9 min
Bit rate : 36 b/s
Frame rate : 0.211 FPS
Count of elements : 882
Stream size : 18.6 KiB (0%)
Title : Traditional
Language : Chinese
Default : No
Forced : No

Text #2
ID : 4
Format : UTF-8
Codec ID : S_TEXT/UTF8
Codec ID/Info : UTF-8 Plain Text
Duration : 1 h 9 min
Bit rate : 80 b/s
Frame rate : 0.211 FPS
Count of elements : 882
Stream size : 41.3 KiB (0%)
Title : Traditional
Language : Chinese
Default : No
Forced : No

Text #3
ID : 5
Format : UTF-8
Codec ID : S_TEXT/UTF8
Codec ID/Info : UTF-8 Plain Text
Duration : 1 h 9 min
Bit rate : 41 b/s
Frame rate : 0.208 FPS
Count of elements : 870
Stream size : 21.0 KiB (0%)
Language : Japanese
Default : No
Forced : No


点击图片可查看大图

软字幕无法在截图上展现,HDR版本/杜比视界版本截图会出现颜色异常,请使用支持的设备播放!

部分资源为软字幕,移动端推荐播放器:MxPlayer,nPlayer,infuse ,其他播放器请自行尝试。

部分资源为软字幕,电脑端推荐播放器:PotPlayer,完美解码,KMPLAYER,其他播放器请自行尝试。

下载端推荐纯BT下载软件:qBittorrent,Bitcomet,uTorrent ,其他下载软件请自行尝试。不支持吸血迅雷。

上传的附件:
最新回复 (0)