2024 美国 剧情 WEB-1080P 良医 第七季[第05集][无字片源].The.Good.Doctor.S07.1080p.Hulu.WEB-DL.DDP.5.1.H.264-BlackTV 1.18GB

Katt2092T 2024-04-04 04:05 170


完整标题:良医 第七季[第05集][无字片源].The.Good.Doctor.S07.1080p.Hulu.WEB-DL.DDP.5.1.H.264-BlackTV 1.18GB




◎标  题 良医 第七季
◎译  名 好医生
◎片  名 The Good Doctor Season 7
◎年  代 2024
◎产  地 美国
◎类  别 剧情
◎语  言 英语
◎IMDb评分 8.3/10 (133人评价)
◎IMDb链接 https://www.imdb.com/title/tt27552077/
◎豆瓣评分 9.2/10 (87人评价)
◎豆瓣链接 https://movie.douban.com/subject/36370737/
◎演  员 弗莱迪·海默 Freddie Highmore
      佩奇·斯巴勒 Paige Spara
      卓库·莫度 Chuku Modu
      菲奥娜·嘉伯曼 Fiona Gubelmann
      李威尹 Will Yun Lee
      克里斯蒂娜·张 Christina Chang
      布里亚·亨德森 Bria Henderson
      诺亚·盖尔文 Noah Galvin
      理查德·希夫 Richard Schiff

◎简  介
    年轻外科医生肖恩·墨菲(弗莱迪·海默 Freddie Highmore 饰)患有自闭症和学者综合症,他在著名的圣文德医院持续发挥卓越的医疗天赋,与此同时也在生活中不断成长。

##### MediaInfo ######
General
Unique ID : 208556142468222382088565637823883664277 (0x9CE673B563E0B2F95CC8BBAF973C5B95)
Complete name : The.Good.Doctor.S07E05.Who.at.Peace.1080p.Hulu.WEB-DL.DDP.5.1.H.264-BlackTV.mkv
Duration : 43 min 2 s
Overall bit rate : 3 911 kb/s

Video
ID : 1
Format : AVC
Format/Info : Advanced Video Codec
Format profile : High@L4
Format settings : CABAC / 4 Ref Frames
Format settings, CABAC : Yes
Format settings, Reference frames : 4 frames
Codec ID : V_MPEG4/ISO/AVC
Duration : 43 min 2 s
Bit rate : 3 653 kb/s
Width : 1 920 pixels
Height : 1 080 pixels
Display aspect ratio : 16:9
Frame rate mode : Constant
Frame rate : 23.976 (24000/1001) FPS
Color space : YUV
Chroma subsampling : 4:2:0
Bit depth : 8 bits
Scan type : Progressive
Bits/(Pixel*Frame) : 0.073
Stream size : 1.10 GiB (93%)
Language : English
Default : Yes
Forced : No

Audio
ID : 2
Format : E-AC-3
Format/Info : Enhanced AC-3
Commercial name : Dolby Digital Plus
Codec ID : A_EAC3
Duration : 43 min 2 s
Bit rate mode : Constant
Bit rate : 256 kb/s
Channel(s) : 6 channels
Channel layout : L R C LFE Ls Rs
Sampling rate : 48.0 kHz
Frame rate : 31.250 FPS (1536 SPF)
Compression mode : Lossy
Stream size : 78.8 MiB (7%)
Language : English
Service kind : Complete Main
Default : Yes
Forced : No

Text
ID : 3
Format : UTF-8
Codec ID : S_TEXT/UTF8
Codec ID/Info : UTF-8 Plain Text
Duration : 42 min 50 s
Bit rate : 87 b/s
Frame rate : 0.352 FPS
Count of elements : 906
Stream size : 27.3 KiB (0%)
Title : SDH
Language : English
Default : No
Forced : No

Menu
00:00:00.000 : en:Chapter 01
00:11:44.050 : en:Chapter 02
00:18:41.190 : en:Chapter 03
00:23:14.080 : en:Chapter 04
00:29:22.140 : en:Chapter 05
00:35:04.120 : en:Chapter 06


点击图片可查看大图

软字幕无法在截图上展现,HDR版本/杜比视界版本截图会出现颜色异常,请使用支持的设备播放!

部分资源为软字幕,移动端推荐播放器:MxPlayer,nPlayer,infuse ,其他播放器请自行尝试。

部分资源为软字幕,电脑端推荐播放器:PotPlayer,完美解码,KMPLAYER,其他播放器请自行尝试。

下载端推荐纯BT下载软件:qBittorrent,Bitcomet,uTorrent ,其他下载软件请自行尝试。不支持吸血迅雷。

上传的附件:
最新回复 (0)