2024 韩国 剧情 WEB-4K 篡位[全12集][中文字幕].The.Impossible.Heir.S01.2160p.DSNP.WEB-DL.DDP.5.1.HDR10.H.265-BlackTV 71.10GB

MAY20919R 2024-04-04 04:06 1240


完整标题:篡位[全12集][中文字幕].The.Impossible.Heir.S01.2160p.DSNP.WEB-DL.DDP.5.1.HDR10.H.265-BlackTV 71.10GB




◎标  题 篡位
◎译  名 皇家铲车 / The Impossible Heir / Royal Loader
◎片  名 로얄로더
◎年  代 2024
◎产  地 韩国
◎类  别 剧情
◎语  言 韩语
◎IMDb链接 https://www.imdb.com/title/tt26693681/
◎豆瓣链接 https://movie.douban.com/subject/36139816/
◎导  演 闵渊弘 Min Yeon-hong
◎演  员 李宰旭 Jae-wook Lee
      李濬荣 Joon-young Lee
      洪秀珠 Hong SuZu
      李知勋 Ji-Hoon Lee

◎简  介
    富豪的私生子强仁夏(李濬荣 饰)、杀人犯的儿子韩太悟(李宰旭 饰)和负债者的女儿罗慧元(洪秀珠 饰)一直过着坎坷的生活,三人都有同一个梦想:不惜一切,爬上社会的最顶层。这场权力的游戏,谁会赢?

##### MediaInfo ######
General
Unique ID : 78737778153539483039686951183053657425 (0x3B3C582F304D309ED759F170C70E9551)
Complete name : The.Impossible.Heir.S01E01.Fate.2160p.DSNP.WEB-DL.DDP.5.1.HDR10.H.265-BlackTV.mkv
Duration : 1 h 3 min
Overall bit rate : 14.9 Mb/s

Video
ID : 1
Format : HEVC
Format/Info : High Efficiency Video Coding
Format profile : Main 10@L5@High
HDR format : SMPTE ST 2086, HDR10 compatible
Codec ID : V_MPEGH/ISO/HEVC
Duration : 1 h 3 min
Bit rate : 14.7 Mb/s
Width : 3 840 pixels
Height : 2 160 pixels
Display aspect ratio : 16:9
Frame rate mode : Constant
Frame rate : 23.976 (24000/1001) FPS
Color space : YUV
Chroma subsampling : 4:2:0
Bit depth : 10 bits
Bits/(Pixel*Frame) : 0.074
Stream size : 6.49 GiB (98%)
Language : Korean
Default : Yes
Forced : No
Color range : Limited
Color primaries : BT.2020
Transfer characteristics : PQ
Matrix coefficients : BT.2020 non-constant
Mastering display color primaries : BT.2020
Mastering display luminance : min: 0.0010 cd/m2, max: 1000 cd/m2

Audio
ID : 2
Format : E-AC-3
Format/Info : Enhanced AC-3
Commercial name : Dolby Digital Plus
Codec ID : A_EAC3
Duration : 1 h 3 min
Bit rate mode : Constant
Bit rate : 256 kb/s
Channel(s) : 6 channels
Channel layout : L R C LFE Ls Rs
Sampling rate : 48.0 kHz
Frame rate : 31.250 FPS (1536 SPF)
Compression mode : Lossy
Stream size : 116 MiB (2%)
Language : Korean
Service kind : Complete Main
Default : Yes
Forced : No

Text #1
ID : 3
Format : UTF-8
Codec ID : S_TEXT/UTF8
Codec ID/Info : UTF-8 Plain Text
Duration : 21 min 59 s
Bit rate : 0 b/s
Frame rate : 0.002 FPS
Count of elements : 2
Stream size : 30.0 Bytes (0%)
Title : Forced
Language : Korean
Default : Yes
Forced : Yes

Text #2
ID : 4
Format : UTF-8
Codec ID : S_TEXT/UTF8
Codec ID/Info : UTF-8 Plain Text
Duration : 1 h 2 min
Bit rate : 62 b/s
Frame rate : 0.259 FPS
Count of elements : 978
Stream size : 28.6 KiB (0%)
Title : SDH
Language : Korean
Default : No
Forced : No

Text #3
ID : 5
Format : UTF-8
Codec ID : S_TEXT/UTF8
Codec ID/Info : UTF-8 Plain Text
Duration : 1 h 2 min
Bit rate : 36 b/s
Frame rate : 0.173 FPS
Count of elements : 651
Stream size : 17.0 KiB (0%)
Title : Traditional
Language : Chinese
Default : No
Forced : No

Text #4
ID : 6
Format : UTF-8
Codec ID : S_TEXT/UTF8
Codec ID/Info : UTF-8 Plain Text
Duration : 1 h 2 min
Bit rate : 35 b/s
Frame rate : 0.171 FPS
Count of elements : 645
Stream size : 16.5 KiB (0%)
Language : Danish
Default : No
Forced : No

Text #5
ID : 7
Format : UTF-8
Codec ID : S_TEXT/UTF8
Codec ID/Info : UTF-8 Plain Text
Duration : 1 h 2 min
Bit rate : 39 b/s
Frame rate : 0.173 FPS
Count of elements : 654
Stream size : 18.0 KiB (0%)
Language : German
Default : No
Forced : No

Text #6
ID : 8
Format : UTF-8
Codec ID : S_TEXT/UTF8
Codec ID/Info : UTF-8 Plain Text
Duration : 1 h 2 min
Bit rate : 45 b/s
Frame rate : 0.207 FPS
Count of elements : 782
Stream size : 20.8 KiB (0%)
Title : SDH
Language : English
Default : No
Forced : No

Text #7
ID : 9
Format : UTF-8
Codec ID : S_TEXT/UTF8
Codec ID/Info : UTF-8 Plain Text
Duration : 1 h 2 min
Bit rate : 38 b/s
Frame rate : 0.174 FPS
Count of elements : 656
Stream size : 17.5 KiB (0%)
Title : Latin America
Language : Spanish
Default : No
Forced : No

Text #8
ID : 10
Format : UTF-8
Codec ID : S_TEXT/UTF8
Codec ID/Info : UTF-8 Plain Text
Duration : 1 h 2 min
Bit rate : 37 b/s
Frame rate : 0.173 FPS
Count of elements : 653
Stream size : 17.2 KiB (0%)
Language : Spanish
Default : No
Forced : No

Text #9
ID : 11
Format : UTF-8
Codec ID : S_TEXT/UTF8
Codec ID/Info : UTF-8 Plain Text
Duration : 1 h 2 min
Bit rate : 36 b/s
Frame rate : 0.173 FPS
Count of elements : 654
Stream size : 16.6 KiB (0%)
Language : Finnish
Default : No
Forced : No

Text #10
ID : 12
Format : UTF-8
Codec ID : S_TEXT/UTF8
Codec ID/Info : UTF-8 Plain Text
Duration : 1 h 2 min
Bit rate : 37 b/s
Frame rate : 0.174 FPS
Count of elements : 655
Stream size : 17.3 KiB (0%)
Language : French
Default : No
Forced : No

Text #11
ID : 13
Format : UTF-8
Codec ID : S_TEXT/UTF8
Codec ID/Info : UTF-8 Plain Text
Duration : 1 h 2 min
Bit rate : 37 b/s
Frame rate : 0.174 FPS
Count of elements : 656
Stream size : 17.1 KiB (0%)
Language : Italian
Default : No
Forced : No

Text #12
ID : 14
Format : UTF-8
Codec ID : S_TEXT/UTF8
Codec ID/Info : UTF-8 Plain Text
Duration : 1 h 2 min
Bit rate : 34 b/s
Frame rate : 0.166 FPS
Count of elements : 625
Stream size : 15.7 KiB (0%)
Language : Japanese
Default : No
Forced : No

Text #13
ID : 15
Format : UTF-8
Codec ID : S_TEXT/UTF8
Codec ID/Info : UTF-8 Plain Text
Duration : 1 h 2 min
Bit rate : 36 b/s
Frame rate : 0.173 FPS
Count of elements : 653
Stream size : 16.7 KiB (0%)
Language : Dutch
Default : No
Forced : No

Text #14
ID : 16
Format : UTF-8
Codec ID : S_TEXT/UTF8
Codec ID/Info : UTF-8 Plain Text
Duration : 1 h 2 min
Bit rate : 37 b/s
Frame rate : 0.173 FPS
Count of elements : 654
Stream size : 17.2 KiB (0%)
Language : Norwegian
Default : No
Forced : No

Text #15
ID : 17
Format : UTF-8
Codec ID : S_TEXT/UTF8
Codec ID/Info : UTF-8 Plain Text
Duration : 1 h 2 min
Bit rate : 35 b/s
Frame rate : 0.174 FPS
Count of elements : 656
Stream size : 16.4 KiB (0%)
Language : Polish
Default : No
Forced : No

Text #16
ID : 18
Format : UTF-8
Codec ID : S_TEXT/UTF8
Codec ID/Info : UTF-8 Plain Text
Duration : 1 h 2 min
Bit rate : 39 b/s
Frame rate : 0.174 FPS
Count of elements : 656
Stream size : 18.2 KiB (0%)
Title : Brazil
Language : Portuguese
Default : No
Forced : No

Text #17
ID : 19
Format : UTF-8
Codec ID : S_TEXT/UTF8
Codec ID/Info : UTF-8 Plain Text
Duration : 1 h 2 min
Bit rate : 37 b/s
Frame rate : 0.174 FPS
Count of elements : 655
Stream size : 17.5 KiB (0%)
Language : Portuguese
Default : No
Forced : No

Text #18
ID : 20
Format : UTF-8
Codec ID : S_TEXT/UTF8
Codec ID/Info : UTF-8 Plain Text
Duration : 1 h 2 min
Bit rate : 29 b/s
Frame rate : 0.173 FPS
Count of elements : 654
Stream size : 13.5 KiB (0%)
Language : Swedish
Default : No
Forced : No

Text #19
ID : 21
Format : UTF-8
Codec ID : S_TEXT/UTF8
Codec ID/Info : UTF-8 Plain Text
Duration : 1 h 2 min
Bit rate : 36 b/s
Frame rate : 0.173 FPS
Count of elements : 654
Stream size : 16.8 KiB (0%)
Language : Turkish
Default : No
Forced : No

Menu
00:00:04.046 : en:Intro
00:00:30.989 : en:Scene 1
00:10:27.961 : en:Scene 2
00:24:34.308 : en:Scene 3
00:34:07.965 : en:Scene 4
00:41:09.553 : en:Scene 5
00:54:36.735 : en:Scene 6
01:02:55.526 : en:Credits


点击图片可查看大图

软字幕无法在截图上展现,HDR版本/杜比视界版本截图会出现颜色异常,请使用支持的设备播放!

部分资源为软字幕,移动端推荐播放器:MxPlayer,nPlayer,infuse ,其他播放器请自行尝试。

部分资源为软字幕,电脑端推荐播放器:PotPlayer,完美解码,KMPLAYER,其他播放器请自行尝试。

下载端推荐纯BT下载软件:qBittorrent,Bitcomet,uTorrent ,其他下载软件请自行尝试。不支持吸血迅雷。

上传的附件:
最新回复 (0)