2024 韩国 剧情 WEB-1080P 夜限照相馆[第13-14集][中文字幕].The.Midnight.Studio.S01.1080p.HamiVideo.WEB-DL.AAC2.0.H.264-BlackTV 3.88GB

MAY20919R 2024-04-04 04:07 557


完整标题:夜限照相馆[第13-14集][中文字幕].The.Midnight.Studio.S01.1080p.HamiVideo.WEB-DL.AAC2.0.H.264-BlackTV 3.88GB




◎标  题 夜限照相馆
◎片  名 야한 사진관
◎年  代 2024
◎产  地 韩国
◎类  别 剧情 / 爱情 / 奇幻
◎语  言 韩语
◎IMDb链接 https://www.imdb.com/title//
◎豆瓣链接 https://movie.douban.com/subject/36347413/
◎导  演 宋贤旭 Hyun-Wook Song
◎编  剧 金怡朗 Yi-rang Kim
◎演  员 周元 Won Joo
      权娜拉 Na-ra Kwon
      柳仁秀 In-soo Yoo
      音文硕 Moon-seok Eum

◎简  介
    被合同束缚,给家人世世代代拍摄死者照片的孤独的摄影师徐基柱遇到了守护他免于死亡的女人韩春,一起面对生与死,领悟到了人生珍贵的治愈罗曼史。   徐基柱(周元):拥有100多年历史的鬼神照相馆的第七代摄影师,35岁陷入短命诅咒的人物。   韩春(权娜拉):曾经是很火的检察官,但现在是连授权都没有的生计型律师。   高代理(柳仁秀):作为贵客营业担当,从未谈过恋爱就以母胎单身告别世界的人物。   白南九(音文硕):海军陆战队出身,黑社会也是一网打尽的当红重案组刑警,但在照相馆里却负责高代理指使的更琐碎的杂务。

##### MediaInfo ######
General
Unique ID : 275743285974472523520912891591135732572 (0xCF7239A2EB44DDDF344E12155C16235C)
Complete name : The.Midnight.Studio.S01E13.1080p.HamiVideo.WEB-DL.AAC2.0.H.264-BlackTV.mkv
Duration : 37 min 55 s
Overall bit rate : 7 957 kb/s

Video
ID : 1
Format : AVC
Format/Info : Advanced Video Codec
Format profile : High@L4
Format settings : CABAC / 3 Ref Frames
Format settings, CABAC : Yes
Format settings, Reference frames : 3 frames
Format settings, GOP : M=1, N=30
Codec ID : V_MPEG4/ISO/AVC
Duration : 37 min 54 s
Bit rate : 7 872 kb/s
Width : 1 920 pixels
Height : 1 080 pixels
Display aspect ratio : 16:9
Frame rate mode : Constant
Frame rate : 29.970 (29970/1000) FPS
Color space : YUV
Chroma subsampling : 4:2:0
Bit depth : 8 bits
Scan type : Progressive
Bits/(Pixel*Frame) : 0.127
Stream size : 2.07 GiB (98%)
Writing library : x264 core 157 r2935 545de2f
Encoding settings : cabac=1 / ref=3 / deblock=1:0:0 / analyse=0x3:0x113 / me=hex / subme=7 / psy=1 / psy_rd=1.00:0.00 / mixed_ref=1 / me_range=16 / chroma_me=1 / trellis=1 / 8x8dct=1 / cqm=0 / deadzone=21,11 / fast_pskip=1 / chroma_qp_offset=-2 / threads=34 / lookahead_threads=5 / sliced_threads=0 / nr=0 / decimate=1 / interlaced=0 / bluray_compat=0 / constrained_intra=0 / bframes=0 / weightp=2 / keyint=30 / keyint_min=16 / scenecut=0 / intra_refresh=0 / rc_lookahead=30 / rc=abr / mbtree=1 / bitrate=7872 / ratetol=1.0 / qcomp=0.60 / qpmin=0 / qpmax=69 / qpstep=4 / vbv_maxrate=8000 / vbv_bufsize=7872 / nal_hrd=none / filler=0 / ip_ratio=1.40 / aq=1:1.00
Language : Korean
Default : Yes
Forced : No

Audio
ID : 2
Format : AAC LC
Format/Info : Advanced Audio Codec Low Complexity
Codec ID : A_AAC-2
Duration : 37 min 55 s
Bit rate : 129 kb/s
Channel(s) : 2 channels
Channel layout : L R
Sampling rate : 48.0 kHz
Frame rate : 46.875 FPS (1024 SPF)
Compression mode : Lossy
Stream size : 34.9 MiB (2%)
Language : Korean
Default : Yes
Forced : No


点击图片可查看大图

软字幕无法在截图上展现,HDR版本/杜比视界版本截图会出现颜色异常,请使用支持的设备播放!

部分资源为软字幕,移动端推荐播放器:MxPlayer,nPlayer,infuse ,其他播放器请自行尝试。

部分资源为软字幕,电脑端推荐播放器:PotPlayer,完美解码,KMPLAYER,其他播放器请自行尝试。

下载端推荐纯BT下载软件:qBittorrent,Bitcomet,uTorrent ,其他下载软件请自行尝试。不支持吸血迅雷。

上传的附件:
最新回复 (0)