2024 美国 剧情 WEB-1080P 新风貌[全10集][简繁英字幕].The.New.Look.S01.1080p.Apple.TV/.WEB-DL.DDP.5.1.Atmos.H.264-BlackTV 38.10GB

RAY20920M 2024-04-04 04:08 348


完整标题:新风貌[全10集][简繁英字幕].The.New.Look.S01.1080p.Apple.TV/.WEB-DL.DDP.5.1.Atmos.H.264-BlackTV 38.10GB




◎标  题 新风貌
◎译  名 新风尚 / 新面貌
◎片  名 The New Look
◎年  代 2024
◎产  地 美国
◎类  别 剧情 / 传记 / 历史
◎语  言 英语
◎IMDb评分 8.3/10 (29人评价)
◎IMDb链接 https://www.imdb.com/title/tt18177528/
◎豆瓣链接 https://movie.douban.com/subject/35766434/
◎导  演 陶德·A·凯斯勒 Todd A. Kessler
      海伦·谢费 Helen Shaver
      杰雷米·波德斯瓦 Jeremy Podeswa
      朱利亚·迪库诺 Julia Ducournau
◎编  剧 陶德·A·凯斯勒 Todd A. Kessler
◎演  员 本·门德尔森 Ben Mendelsohn
      朱丽叶·比诺什 Juliette Binoche
      约翰·马尔科维奇 John Malkovich
      格伦·克洛斯 Glenn Close
      麦茜·威廉姆斯 Maisie Williams
      艾米莉·莫迪默 Emily Mortimer
      克莱斯·邦 Claes Bang
      大卫·卡门诺斯 David Kammenos
      米迦勒·卡特 Michael Carter
      杰尼斯·纽沃纳 Jannis Niewöhner
      多米尼克·泰伊 Dominic Tighe
      雨果·贝克 Hugo Becker
      Emma Canning
      Joe Pitts
      Margeaux Lampley
      科内利乌斯·奥博尼亚 Cornelius Obonya
      Etienne Guillou-Kervern
      罗曼·朔姆堡 Roman Schomburg
      Gregory Defleur
      Thomas Poitevin
      Alexandra Salomatin
      阿克塞勒·奥赫扬 Axel Auriant
      Françoise Miquelis
      Noé Besin
      艾玛·坎宁 Emma Canning

◎简  介
    剧名来自迪奥载入史册的女装新款式“新风貌”。故事受真实事件启发,聚焦时装设计师克里斯汀·迪奥和可可·香奈儿的竞争关系。克里斯汀·迪奥在二战期间迅速崛起,其具有创新的标志性风格,使世界重新焕发生机。   除了二战后统治全球时尚数十年的迪奥,和香奈儿之外,这部交织传 奇故事还将包括其他迪奥同代人和竞争对手的故事:皮埃尔·巴尔曼(Balmain)、克里斯托瓦尔·巴伦西亚加(Balenciaga)、贝尔·德·纪梵希(Givenchy)、皮尔·卡丹(Pierre Cardin)、伊夫·圣罗兰(Yves Saint Laurent)等。

##### MediaInfo ######
General
Unique ID : 64774768337290997505339758466815199882 (0x30BB2AA62D34D44A8B78F4E187578A8A)
Complete name : The.New.Look.S01E01.Just.You.Wait.and.See.1080p.Apple.TV+.WEB-DL.DDP.5.1.Atmos.H.264-BlackTV.mkv
Duration : 1 h 1 min
Overall bit rate : 10.9 Mb/s

Video
ID : 1
Format : AVC
Format/Info : Advanced Video Codec
Format profile : High@L4
Format settings : CABAC / 4 Ref Frames
Format settings, CABAC : Yes
Format settings, Reference frames : 4 frames
Codec ID : V_MPEG4/ISO/AVC
Duration : 1 h 1 min
Bit rate : 10.1 Mb/s
Width : 1 920 pixels
Height : 1 080 pixels
Display aspect ratio : 16:9
Frame rate mode : Constant
Frame rate : 23.976 (24000/1001) FPS
Color space : YUV
Chroma subsampling : 4:2:0
Bit depth : 8 bits
Scan type : Progressive
Bits/(Pixel*Frame) : 0.203
Stream size : 4.35 GiB (93%)
Language : English
Default : Yes
Forced : No
Color range : Limited
Color primaries : BT.709
Transfer characteristics : BT.709
Matrix coefficients : BT.709

Audio
ID : 2
Format : E-AC-3 JOC
Format/Info : Enhanced AC-3 with Joint Object Coding
Commercial name : Dolby Digital Plus with Dolby Atmos
Codec ID : A_EAC3
Duration : 1 h 1 min
Bit rate mode : Constant
Bit rate : 768 kb/s
Channel(s) : 6 channels
Channel layout : L R C LFE Ls Rs
Sampling rate : 48.0 kHz
Frame rate : 31.250 FPS (1536 SPF)
Compression mode : Lossy
Stream size : 340 MiB (7%)
Language : English
Service kind : Complete Main
Default : Yes
Forced : No
Complexity index : 16
Number of dynamic objects : 15
Bed channel count : 1 channel
Bed channel configuration : LFE

Text #1
ID : 3
Format : UTF-8
Codec ID : S_TEXT/UTF8
Codec ID/Info : UTF-8 Plain Text
Duration : 58 min 14 s
Bit rate : 63 b/s
Frame rate : 0.231 FPS
Count of elements : 808
Stream size : 27.2 KiB (0%)
Language : English
Default : No
Forced : No

Text #2
ID : 4
Format : UTF-8
Codec ID : S_TEXT/UTF8
Codec ID/Info : UTF-8 Plain Text
Duration : 1 h 0 min
Bit rate : 58 b/s
Frame rate : 0.227 FPS
Count of elements : 825
Stream size : 25.8 KiB (0%)
Title : Simplified
Language : Chinese
Default : No
Forced : No

Text #3
ID : 5
Format : UTF-8
Codec ID : S_TEXT/UTF8
Codec ID/Info : UTF-8 Plain Text
Duration : 1 h 0 min
Bit rate : 56 b/s
Frame rate : 0.227 FPS
Count of elements : 827
Stream size : 25.2 KiB (0%)
Title : Traditional
Language : Chinese
Default : No
Forced : No

Text #4
ID : 6
Format : UTF-8
Codec ID : S_TEXT/UTF8
Codec ID/Info : UTF-8 Plain Text
Duration : 1 h 0 min
Bit rate : 53 b/s
Frame rate : 0.227 FPS
Count of elements : 827
Stream size : 23.6 KiB (0%)
Title : Traditional
Language : Chinese
Default : No
Forced : No

Text #5
ID : 7
Format : UTF-8
Codec ID : S_TEXT/UTF8
Codec ID/Info : UTF-8 Plain Text
Duration : 1 h 0 min
Bit rate : 94 b/s
Frame rate : 0.224 FPS
Count of elements : 814
Stream size : 42.0 KiB (0%)
Language : Arabic
Default : No
Forced : No

Text #6
ID : 8
Format : UTF-8
Codec ID : S_TEXT/UTF8
Codec ID/Info : UTF-8 Plain Text
Duration : 1 h 0 min
Bit rate : 94 b/s
Frame rate : 0.186 FPS
Count of elements : 674
Stream size : 41.7 KiB (0%)
Language : Bulgarian
Default : No
Forced : No

Text #7
ID : 9
Format : UTF-8
Codec ID : S_TEXT/UTF8
Codec ID/Info : UTF-8 Plain Text
Duration : 1 h 0 min
Bit rate : 58 b/s
Frame rate : 0.218 FPS
Count of elements : 790
Stream size : 25.8 KiB (0%)
Language : Czech
Default : No
Forced : No

Text #8
ID : 10
Format : UTF-8
Codec ID : S_TEXT/UTF8
Codec ID/Info : UTF-8 Plain Text
Duration : 1 h 0 min
Bit rate : 63 b/s
Frame rate : 0.218 FPS
Count of elements : 791
Stream size : 28.2 KiB (0%)
Language : Danish
Default : No
Forced : No

Text #9
ID : 11
Format : UTF-8
Codec ID : S_TEXT/UTF8
Codec ID/Info : UTF-8 Plain Text
Duration : 1 h 0 min
Bit rate : 63 b/s
Frame rate : 0.230 FPS
Count of elements : 834
Stream size : 27.9 KiB (0%)
Language : German
Default : No
Forced : No

Text #10
ID : 12
Format : UTF-8
Codec ID : S_TEXT/UTF8
Codec ID/Info : UTF-8 Plain Text
Duration : 1 h 0 min
Bit rate : 106 b/s
Frame rate : 0.220 FPS
Count of elements : 800
Stream size : 47.2 KiB (0%)
Language : Greek
Default : No
Forced : No

Text #11
ID : 13
Format : UTF-8
Codec ID : S_TEXT/UTF8
Codec ID/Info : UTF-8 Plain Text
Duration : 1 h 0 min
Bit rate : 61 b/s
Frame rate : 0.226 FPS
Count of elements : 819
Stream size : 27.3 KiB (0%)
Title : Latin America
Language : Spanish
Default : No
Forced : No

Text #12
ID : 14
Format : UTF-8
Codec ID : S_TEXT/UTF8
Codec ID/Info : UTF-8 Plain Text
Duration : 1 h 0 min
Bit rate : 64 b/s
Frame rate : 0.228 FPS
Count of elements : 832
Stream size : 28.9 KiB (0%)
Language : Spanish
Default : No
Forced : No

Text #13
ID : 15
Format : UTF-8
Codec ID : S_TEXT/UTF8
Codec ID/Info : UTF-8 Plain Text
Duration : 1 h 0 min
Bit rate : 58 b/s
Frame rate : 0.222 FPS
Count of elements : 805
Stream size : 25.7 KiB (0%)
Language : Estonian
Default : No
Forced : No

Text #14
ID : 16
Format : UTF-8
Codec ID : S_TEXT/UTF8
Codec ID/Info : UTF-8 Plain Text
Duration : 1 h 0 min
Bit rate : 59 b/s
Frame rate : 0.210 FPS
Count of elements : 764
Stream size : 26.5 KiB (0%)
Language : Finnish
Default : No
Forced : No

Text #15
ID : 17
Format : UTF-8
Codec ID : S_TEXT/UTF8
Codec ID/Info : UTF-8 Plain Text
Duration : 1 h 0 min
Bit rate : 61 b/s
Frame rate : 0.243 FPS
Count of elements : 884
Stream size : 27.4 KiB (0%)
Title : Canada
Language : French
Default : No
Forced : No

Text #16
ID : 18
Format : UTF-8
Codec ID : S_TEXT/UTF8
Codec ID/Info : UTF-8 Plain Text
Duration : 1 h 0 min
Bit rate : 61 b/s
Frame rate : 0.243 FPS
Count of elements : 882
Stream size : 27.4 KiB (0%)
Language : French
Default : No
Forced : No

Text #17
ID : 19
Format : UTF-8
Codec ID : S_TEXT/UTF8
Codec ID/Info : UTF-8 Plain Text
Duration : 1 h 0 min
Bit rate : 85 b/s
Frame rate : 0.227 FPS
Count of elements : 824
Stream size : 37.9 KiB (0%)
Language : Hebrew
Default : No
Forced : No

Text #18
ID : 20
Format : UTF-8
Codec ID : S_TEXT/UTF8
Codec ID/Info : UTF-8 Plain Text
Duration : 1 h 0 min
Bit rate : 171 b/s
Frame rate : 0.227 FPS
Count of elements : 826
Stream size : 76.1 KiB (0%)
Language : Hindi
Default : No
Forced : No

Text #19
ID : 21
Format : UTF-8
Codec ID : S_TEXT/UTF8
Codec ID/Info : UTF-8 Plain Text
Duration : 1 h 0 min
Bit rate : 59 b/s
Frame rate : 0.224 FPS
Count of elements : 814
Stream size : 26.2 KiB (0%)
Language : Hungarian
Default : No
Forced : No

Text #20
ID : 22
Format : UTF-8
Codec ID : S_TEXT/UTF8
Codec ID/Info : UTF-8 Plain Text
Duration : 1 h 0 min
Bit rate : 65 b/s
Frame rate : 0.225 FPS
Count of elements : 818
Stream size : 28.9 KiB (0%)
Language : Indonesian
Default : No
Forced : No

Text #21
ID : 23
Format : UTF-8
Codec ID : S_TEXT/UTF8
Codec ID/Info : UTF-8 Plain Text
Duration : 1 h 0 min
Bit rate : 62 b/s
Frame rate : 0.223 FPS
Count of elements : 810
Stream size : 27.7 KiB (0%)
Language : Italian
Default : No
Forced : No

Text #22
ID : 24
Format : UTF-8
Codec ID : S_TEXT/UTF8
Codec ID/Info : UTF-8 Plain Text
Duration : 1 h 0 min
Bit rate : 55 b/s
Frame rate : 0.217 FPS
Count of elements : 789
Stream size : 24.8 KiB (0%)
Language : Japanese
Default : No
Forced : No

Text #23
ID : 25
Format : UTF-8
Codec ID : S_TEXT/UTF8
Codec ID/Info : UTF-8 Plain Text
Duration : 1 h 0 min
Bit rate : 72 b/s
Frame rate : 0.227 FPS
Count of elements : 827
Stream size : 32.2 KiB (0%)
Language : Korean
Default : No
Forced : No

Text #24
ID : 26
Format : UTF-8
Codec ID : S_TEXT/UTF8
Codec ID/Info : UTF-8 Plain Text
Duration : 1 h 0 min
Bit rate : 62 b/s
Frame rate : 0.227 FPS
Count of elements : 825
Stream size : 27.7 KiB (0%)
Language : Lithuanian
Default : No
Forced : No

Text #25
ID : 27
Format : UTF-8
Codec ID : S_TEXT/UTF8
Codec ID/Info : UTF-8 Plain Text
Duration : 1 h 0 min
Bit rate : 64 b/s
Frame rate : 0.220 FPS
Count of elements : 799
Stream size : 28.6 KiB (0%)
Language : Latvian
Default : No
Forced : No

Text #26
ID : 28
Format : UTF-8
Codec ID : S_TEXT/UTF8
Codec ID/Info : UTF-8 Plain Text
Duration : 1 h 0 min
Bit rate : 60 b/s
Frame rate : 0.224 FPS
Count of elements : 812
Stream size : 26.8 KiB (0%)
Language : Malay
Default : No
Forced : No

Text #27
ID : 29
Format : UTF-8
Codec ID : S_TEXT/UTF8
Codec ID/Info : UTF-8 Plain Text
Duration : 1 h 0 min
Bit rate : 58 b/s
Frame rate : 0.179 FPS
Count of elements : 651
Stream size : 26.1 KiB (0%)
Language : Dutch
Default : No
Forced : No

Text #28
ID : 30
Format : UTF-8
Codec ID : S_TEXT/UTF8
Codec ID/Info : UTF-8 Plain Text
Duration : 1 h 0 min
Bit rate : 58 b/s
Frame rate : 0.201 FPS
Count of elements : 728
Stream size : 25.8 KiB (0%)
Language : Norwegian
Default : No
Forced : No

Text #29
ID : 31
Format : UTF-8
Codec ID : S_TEXT/UTF8
Codec ID/Info : UTF-8 Plain Text
Duration : 1 h 0 min
Bit rate : 57 b/s
Frame rate : 0.212 FPS
Count of elements : 771
Stream size : 25.7 KiB (0%)
Language : Polish
Default : No
Forced : No

Text #30
ID : 32
Format : UTF-8
Codec ID : S_TEXT/UTF8
Codec ID/Info : UTF-8 Plain Text
Duration : 1 h 0 min
Bit rate : 61 b/s
Frame rate : 0.225 FPS
Count of elements : 817
Stream size : 27.4 KiB (0%)
Language : Portuguese
Default : No
Forced : No

Text #31
ID : 33
Format : UTF-8
Codec ID : S_TEXT/UTF8
Codec ID/Info : UTF-8 Plain Text
Duration : 1 h 0 min
Bit rate : 59 b/s
Frame rate : 0.216 FPS
Count of elements : 786
Stream size : 26.3 KiB (0%)
Title : Brazil
Language : Portuguese
Default : No
Forced : No

Text #32
ID : 34
Format : UTF-8
Codec ID : S_TEXT/UTF8
Codec ID/Info : UTF-8 Plain Text
Duration : 1 h 0 min
Bit rate : 93 b/s
Frame rate : 0.216 FPS
Count of elements : 787
Stream size : 41.5 KiB (0%)
Language : Russian
Default : No
Forced : No

Text #33
ID : 35
Format : UTF-8
Codec ID : S_TEXT/UTF8
Codec ID/Info : UTF-8 Plain Text
Duration : 1 h 0 min
Bit rate : 57 b/s
Frame rate : 0.224 FPS
Count of elements : 817
Stream size : 25.5 KiB (0%)
Language : Slovak
Default : No
Forced : No

Text #34
ID : 36
Format : UTF-8
Codec ID : S_TEXT/UTF8
Codec ID/Info : UTF-8 Plain Text
Duration : 1 h 0 min
Bit rate : 50 b/s
Frame rate : 0.184 FPS
Count of elements : 668
Stream size : 22.6 KiB (0%)
Language : Slovenian
Default : No
Forced : No

Text #35
ID : 37
Format : UTF-8
Codec ID : S_TEXT/UTF8
Codec ID/Info : UTF-8 Plain Text
Duration : 1 h 0 min
Bit rate : 63 b/s
Frame rate : 0.219 FPS
Count of elements : 794
Stream size : 28.1 KiB (0%)
Language : Swedish
Default : No
Forced : No

Text #36
ID : 38
Format : UTF-8
Codec ID : S_TEXT/UTF8
Codec ID/Info : UTF-8 Plain Text
Duration : 1 h 0 min
Bit rate : 190 b/s
Frame rate : 0.227 FPS
Count of elements : 824
Stream size : 84.4 KiB (0%)
Language : Tamil
Default : No
Forced : No

Text #37
ID : 39
Format : UTF-8
Codec ID : S_TEXT/UTF8
Codec ID/Info : UTF-8 Plain Text
Duration : 1 h 0 min
Bit rate : 192 b/s
Frame rate : 0.227 FPS
Count of elements : 824
Stream size : 85.3 KiB (0%)
Language : Telugu
Default : No
Forced : No

Text #38
ID : 40
Format : UTF-8
Codec ID : S_TEXT/UTF8
Codec ID/Info : UTF-8 Plain Text
Duration : 1 h 0 min
Bit rate : 158 b/s
Frame rate : 0.227 FPS
Count of elements : 825
Stream size : 70.1 KiB (0%)
Language : Thai
Default : No
Forced : No

Text #39
ID : 41
Format : UTF-8
Codec ID : S_TEXT/UTF8
Codec ID/Info : UTF-8 Plain Text
Duration : 1 h 0 min
Bit rate : 61 b/s
Frame rate : 0.224 FPS
Count of elements : 813
Stream size : 27.4 KiB (0%)
Language : Turkish
Default : No
Forced : No

Text #40
ID : 42
Format : UTF-8
Codec ID : S_TEXT/UTF8
Codec ID/Info : UTF-8 Plain Text
Duration : 1 h 0 min
Bit rate : 98 b/s
Frame rate : 0.227 FPS
Count of elements : 827
Stream size : 43.7 KiB (0%)
Language : Ukrainian
Default : No
Forced : No

Text #41
ID : 43
Format : UTF-8
Codec ID : S_TEXT/UTF8
Codec ID/Info : UTF-8 Plain Text
Duration : 1 h 0 min
Bit rate : 80 b/s
Frame rate : 0.226 FPS
Count of elements : 822
Stream size : 35.6 KiB (0%)
Language : Vietnamese
Default : No
Forced : No


点击图片可查看大图

软字幕无法在截图上展现,HDR版本/杜比视界版本截图会出现颜色异常,请使用支持的设备播放!

部分资源为软字幕,移动端推荐播放器:MxPlayer,nPlayer,infuse ,其他播放器请自行尝试。

部分资源为软字幕,电脑端推荐播放器:PotPlayer,完美解码,KMPLAYER,其他播放器请自行尝试。

下载端推荐纯BT下载软件:qBittorrent,Bitcomet,uTorrent ,其他下载软件请自行尝试。不支持吸血迅雷。

上传的附件:
最新回复 (0)