2024 美国 剧情 WEB-1080P 菜鸟老警 第六季[第05集][无字片源].The.Rookie.S06.1080p.Hulu.WEB-DL.DDP.5.1.H.264-BlackTV 1.61GB

Katt2092T 2024-04-04 04:09 317


完整标题:菜鸟老警 第六季[第05集][无字片源].The.Rookie.S06.1080p.Hulu.WEB-DL.DDP.5.1.H.264-BlackTV 1.61GB




◎标  题 菜鸟老警 第六季
◎片  名 The Rookie Season 6
◎年  代 2024
◎产  地 美国
◎类  别 剧情 / 犯罪
◎语  言 英语
◎IMDb评分 8.2/10 (259人评价)
◎IMDb链接 https://www.imdb.com/title/tt27536180/
◎豆瓣链接 https://movie.douban.com/subject/36367169/
◎演  员 内森·菲利安 Nathan Fillion

##### MediaInfo ######
General
Unique ID : 2328023799405340130096855888534087625 (0x1C05C6F636E22D5BA0F60F518C2A7C9)
Complete name : The.Rookie.S06E05.The.Vow.1080p.Hulu.WEB-DL.DDP.5.1.H.264-BlackTV.mkv
Duration : 41 min 42 s
Overall bit rate : 5 514 kb/s

Video
ID : 1
Format : AVC
Format/Info : Advanced Video Codec
Format profile : High@L4
Format settings : CABAC / 4 Ref Frames
Format settings, CABAC : Yes
Format settings, Reference frames : 4 frames
Codec ID : V_MPEG4/ISO/AVC
Duration : 41 min 42 s
Bit rate : 5 256 kb/s
Width : 1 920 pixels
Height : 1 080 pixels
Display aspect ratio : 16:9
Frame rate mode : Constant
Frame rate : 23.976 (24000/1001) FPS
Color space : YUV
Chroma subsampling : 4:2:0
Bit depth : 8 bits
Scan type : Progressive
Bits/(Pixel*Frame) : 0.106
Stream size : 1.53 GiB (95%)
Language : English
Default : Yes
Forced : No

Audio
ID : 2
Format : E-AC-3
Format/Info : Enhanced AC-3
Commercial name : Dolby Digital Plus
Codec ID : A_EAC3
Duration : 41 min 42 s
Bit rate mode : Constant
Bit rate : 256 kb/s
Channel(s) : 6 channels
Channel layout : L R C LFE Ls Rs
Sampling rate : 48.0 kHz
Frame rate : 31.250 FPS (1536 SPF)
Compression mode : Lossy
Stream size : 76.4 MiB (5%)
Language : English
Service kind : Complete Main
Default : Yes
Forced : No

Text
ID : 3
Format : UTF-8
Codec ID : S_TEXT/UTF8
Codec ID/Info : UTF-8 Plain Text
Duration : 41 min 36 s
Bit rate : 97 b/s
Frame rate : 0.411 FPS
Count of elements : 1026
Stream size : 29.7 KiB (0%)
Title : SDH
Language : English
Default : No
Forced : No

Menu
00:00:00.000 : en:Chapter 01
00:08:05.170 : en:Chapter 02
00:20:17.100 : en:Chapter 03
00:25:13.140 : en:Chapter 04
00:31:17.070 : en:Chapter 05
00:35:55.010 : en:Chapter 06


点击图片可查看大图

软字幕无法在截图上展现,HDR版本/杜比视界版本截图会出现颜色异常,请使用支持的设备播放!

部分资源为软字幕,移动端推荐播放器:MxPlayer,nPlayer,infuse ,其他播放器请自行尝试。

部分资源为软字幕,电脑端推荐播放器:PotPlayer,完美解码,KMPLAYER,其他播放器请自行尝试。

下载端推荐纯BT下载软件:qBittorrent,Bitcomet,uTorrent ,其他下载软件请自行尝试。不支持吸血迅雷。

上传的附件:
最新回复 (0)