2024 美国 剧情 WEB-1080P 神探特伦特 第二季[第05集][无字片源].Will.Trent.S02.1080p.Hulu.WEB-DL.DDP.5.1.H.264-BlackTV 1.81GB

RAY20920M 2024-04-04 04:12 190


完整标题:神探特伦特 第二季[第05集][无字片源].Will.Trent.S02.1080p.Hulu.WEB-DL.DDP.5.1.H.264-BlackTV 1.81GB




◎标  题 神探特伦特 第二季
◎译  名 特伦特探员
◎片  名 Will Trent Season 2
◎年  代 2024
◎产  地 美国
◎类  别 剧情 / 悬疑 / 犯罪
◎语  言 英语
◎IMDb评分 8.6/10 (173人评价)
◎IMDb链接 https://www.imdb.com/title/tt27544465/
◎豆瓣链接 https://movie.douban.com/subject/36391993/
◎演  员 拉蒙·罗德里格兹 Ramon Rodriguez

◎简  介
    ABC续订《特伦特探员》第二季。

##### MediaInfo ######
General
Unique ID : 148836064304079695792537813587670713235 (0x6FF8C886A9C6759DF5FCF4B9393DC393)
Complete name : Will.Trent.S02E05.Capt.Duke.Wagners.Daughter.1080p.Hulu.WEB-DL.DDP.5.1.H.264-BlackTV.mkv
Duration : 42 min 10 s
Overall bit rate : 6 124 kb/s

Video
ID : 1
Format : AVC
Format/Info : Advanced Video Codec
Format profile : High@L4
Format settings : CABAC / 4 Ref Frames
Format settings, CABAC : Yes
Format settings, Reference frames : 4 frames
Codec ID : V_MPEG4/ISO/AVC
Duration : 42 min 10 s
Bit rate : 5 867 kb/s
Width : 1 920 pixels
Height : 1 080 pixels
Display aspect ratio : 16:9
Frame rate mode : Constant
Frame rate : 23.976 (24000/1001) FPS
Color space : YUV
Chroma subsampling : 4:2:0
Bit depth : 8 bits
Scan type : Progressive
Bits/(Pixel*Frame) : 0.118
Stream size : 1.73 GiB (96%)
Language : English
Default : Yes
Forced : No

Audio
ID : 2
Format : E-AC-3
Format/Info : Enhanced AC-3
Commercial name : Dolby Digital Plus
Codec ID : A_EAC3
Duration : 42 min 10 s
Bit rate mode : Constant
Bit rate : 256 kb/s
Channel(s) : 6 channels
Channel layout : L R C LFE Ls Rs
Sampling rate : 48.0 kHz
Frame rate : 31.250 FPS (1536 SPF)
Compression mode : Lossy
Stream size : 77.2 MiB (4%)
Language : English
Service kind : Complete Main
Default : Yes
Forced : No

Text
ID : 3
Format : UTF-8
Codec ID : S_TEXT/UTF8
Codec ID/Info : UTF-8 Plain Text
Duration : 42 min 0 s
Bit rate : 85 b/s
Frame rate : 0.369 FPS
Count of elements : 931
Stream size : 26.3 KiB (0%)
Title : SDH
Language : English
Default : No
Forced : No

Menu
00:00:00.000 : en:Chapter 01
00:05:26.080 : en:Chapter 02
00:18:13.110 : en:Chapter 03
00:25:59.120 : en:Chapter 04
00:29:44.200 : en:Chapter 05
00:35:05.090 : en:Chapter 06


点击图片可查看大图

软字幕无法在截图上展现,HDR版本/杜比视界版本截图会出现颜色异常,请使用支持的设备播放!

部分资源为软字幕,移动端推荐播放器:MxPlayer,nPlayer,infuse ,其他播放器请自行尝试。

部分资源为软字幕,电脑端推荐播放器:PotPlayer,完美解码,KMPLAYER,其他播放器请自行尝试。

下载端推荐纯BT下载软件:qBittorrent,Bitcomet,uTorrent ,其他下载软件请自行尝试。不支持吸血迅雷。

上传的附件:
最新回复 (0)