2024 大陆 剧情 WEB-1080P 今天的她们[第13-14集][国语配音/中文字幕].Fry.me.to.the.moon.S01.2024.1080p.WEB-DL.H264.AAC-LelveTV 0.61GB

RAY20920M 2024-04-04 04:41 323


完整标题:今天的她们[第13-14集][国语配音/中文字幕].Fry.me.to.the.moon.S01.2024.1080p.WEB-DL.H264.AAC-LelveTV 0.61GB




◎标  题 今天的她们
◎年  代 2024
◎产  地 中国大陆
◎类  别 剧情
◎语  言 汉语普通话
◎IMDb链接 https://www.imdb.com/title/tt31888837/
◎豆瓣链接 https://movie.douban.com/subject/35370850/
◎导  演 杜晓雨 Xiaoyu Du
◎编  剧 秦雯 Wen Qin
      许思窈 Siyao Xu
◎演  员 宋轶 Yi Song
      佘诗曼 Charmaine Sheh
      李纯 Chun Li
      张国立 Guoli Zhang
      张超 Juck Zhang
      王仁君 Renjun Wang
      李俊贤 Junxian Li
      沈盛男 Shengnan Shen
      苏爱婷 Aiting Su
      贝勒 Lei Bei

◎简  介
    路真真为爱离开北京回到成都,梁清然被总公司派去收购老字号川白楼,路真真选择帮助闺蜜顾漫婷一起度过川白楼的经营危机,一场关于美食“传承与守护”的故事,让三位性格各异的女性“不打不相识”。经过爱情 、事业、理想的层层考验,她们又将在烟火成都迈向怎样的人生新阶段……

##### MediaInfo ######
General
Unique ID : 94814157051887428433788394030237847178 (0x47548ADC27CF362D238FDEB026018E8A)
Complete name : Fry.me.to.the.moon.S01E13.2024.1080p.WEB-DL.H264.AAC-LelveTV.mkv
Duration : 44 min 33 s
Overall bit rate : 907 kb/s

Video
ID : 1
Format : AVC
Format/Info : Advanced Video Codec
Format profile : High@L4
Format settings : CABAC / 4 Ref Frames
Format settings, CABAC : Yes
Format settings, Reference frames : 4 frames
Codec ID : V_MPEG4/ISO/AVC
Duration : 44 min 33 s
Bit rate : 811 kb/s
Width : 1 920 pixels
Height : 804 pixels
Display aspect ratio : 2.40:1
Frame rate mode : Constant
Frame rate : 25.000 FPS
Color space : YUV
Chroma subsampling : 4:2:0
Bit depth : 8 bits
Scan type : Progressive
Bits/(Pixel*Frame) : 0.021
Stream size : 259 MiB (89%)
Language : Chinese
Default : Yes
Forced : No
Color range : Limited
Color primaries : BT.709
Transfer characteristics : BT.709
Matrix coefficients : BT.709

Audio
ID : 2
Format : AAC LC
Format/Info : Advanced Audio Codec Low Complexity
Codec ID : A_AAC-2
Duration : 44 min 33 s
Bit rate : 93.4 kb/s
Channel(s) : 2 channels
Channel layout : L R
Sampling rate : 48.0 kHz
Frame rate : 46.875 FPS (1024 SPF)
Compression mode : Lossy
Stream size : 29.8 MiB (10%)
Title : zh-ch [AAC 2.0]
Language : Chinese
Default : Yes
Forced : No


点击图片可查看大图

软字幕无法在截图上展现,HDR版本/杜比视界版本截图会出现颜色异常,请使用支持的设备播放!

部分资源为软字幕,移动端推荐播放器:MxPlayer,nPlayer,infuse ,其他播放器请自行尝试。

部分资源为软字幕,电脑端推荐播放器:PotPlayer,完美解码,KMPLAYER,其他播放器请自行尝试。

下载端推荐纯BT下载软件:qBittorrent,Bitcomet,uTorrent ,其他下载软件请自行尝试。不支持吸血迅雷。

上传的附件:
最新回复 (0)